YellowBrickRoad (2010)

Posted By: NaVi7
YellowBrickRoad (2010)

YellowBrickRoad (2010)
BDRip 1080p | MKV / AVC, 9870 Kbps | 1920x1080 | 1h 39mn | 7.94 GB
English: DTS, 1509 Kbps (6 ch)
Genre: Horror | Thriller

One Morning in New England, 1940, the entire population of Friar New Hampshire - 572 people - walked together up a winding mountain trail and into the wilderness. They left behind their clothes, their money, all of their essentials. Even their dogs were abandoned, tied to posts and left to starve. No One knows why. A search party dispatched by the U.S. Army eventually discovered the remains of nearly 300 of Friar's evacuees. Many had frozen to death. Others were cruelly and mysteriously slaughtered. The bodies of the remaining citizens are still unaccounted for. Over the years, a quiet cover-up operation managed to weave the story of Friar into the stuff of legends and backwoods fairy tales. The town has slowly repopulated, but the vast wilderness is mostly untracked, with the northern-most stretches off limits to local hunters and loggers. In 2008, the coordinates for the "YELLOWBRICKROAD" trail head were declassified…

imdb

General
Unique ID : 178589415743331371135309294505936225590 (0x865B1202A8A82AF78A99EA1A0FEB0536)
Complete name : yellowbrickroad.2010.1080p.bluray.x264-brmp.mkv
Format : Matroska
Format version : Version 2
File size : 7.94 GiB
Duration : 1h 39mn
Overall bit rate : 11.4 Mbps
Encoded date : UTC 2013-01-26 17:09:52
Writing application : mkvmerge v2.9.7 ('Tenderness') built on Jul 1 2009 18:43:35
Writing library : libebml v0.7.7 + libmatroska v0.8.1

Video
ID : 1
Format : AVC
Format/Info : Advanced Video Codec
Format profile : High@L4.1
Format settings, CABAC : Yes
Format settings, ReFrames : 4 frames
Codec ID : V_MPEG4/ISO/AVC
Duration : 1h 39mn
Bit rate : 9 870 Kbps
Width : 1 920 pixels
Height : 1 080 pixels
Display aspect ratio : 16:9
Frame rate mode : Constant
Frame rate : 23.976 fps
Color space : YUV
Chroma subsampling : 4:2:0
Bit depth : 8 bits
Scan type : Progressive
Bits/(Pixel*Frame) : 0.199
Stream size : 6.73 GiB (85%)
Writing library : x264 core 129 r2245 bc13772
Encoding settings : cabac=1 / ref=4 / deblock=1:0:0 / analyse=0x3:0x133 / me=umh / subme=7 / psy=1 / psy_rd=1.00:0.00 / mixed_ref=1 / me_range=16 / chroma_me=1 / trellis=1 / 8x8dct=1 / cqm=0 / deadzone=21,11 / fast_pskip=0 / chroma_qp_offset=-2 / threads=12 / lookahead_threads=2 / sliced_threads=0 / nr=0 / decimate=1 / interlaced=0 / bluray_compat=0 / constrained_intra=0 / bframes=3 / b_pyramid=2 / b_adapt=1 / b_bias=0 / direct=1 / weightb=1 / open_gop=0 / weightp=2 / keyint=250 / keyint_min=23 / scenecut=40 / intra_refresh=0 / rc_lookahead=40 / rc=2pass / mbtree=1 / bitrate=9870 / ratetol=1.0 / qcomp=0.60 / qpmin=0 / qpmax=69 / qpstep=4 / cplxblur=20.0 / qblur=0.5 / ip_ratio=1.40 / aq=1:1.00
Language : English
Default : Yes
Forced : No

Audio
ID : 2
Format : DTS
Format/Info : Digital Theater Systems
Mode : 16
Format settings, Endianness : Big
Codec ID : A_DTS
Duration : 1h 39mn
Bit rate mode : Constant
Bit rate : 1 509 Kbps
Channel(s) : 6 channels
Channel positions : Front: L C R, Side: L R, LFE
Sampling rate : 48.0 KHz
Bit depth : 24 bits
Compression mode : Lossy
Stream size : 1.05 GiB (13%)
Default : Yes
Forced : No


screenshots:

YellowBrickRoad (2010)

YellowBrickRoad (2010)

YellowBrickRoad (2010)


Welcome to My Blog!

Subscribe to My Newsletter!

No more mirrors!

If you want to download it, but found out that links are dead, just leave a comment or PM me!
Download Links:
http://uploaded.net/file/vuqp2a73/234.html
Links to RapidGator and Uploaded are inside the html file. Download the file and open it in your browser.