Tags
Language
Tags

Yourself and Yours (2016)

Posted By: Tavaz
1080p (FullHD) / BDRip IMDb
Yourself and Yours (2016)

Yourself and Yours (2016)
BDRip | MKV | 1920x1080 | 한국어 | H264 @ 5760 kbps | AC-3 @ 448 kbps | 1 h 26 min | 3.72 GiB
Subtitles: English
Genre: Comedy, Drama

Painter Youngsoo hears secondhand that his girlfriend, Minjung, has recently had drinks with an unknown man. This leads to a quarrel that seems to end their relationship. The next day, Youngsoo sets out in search of her, at the same time that Minjung—or a woman who looks exactly like her and may or may not be her twin—has a series of encounters with strange men, some of whom claim to have met her before.

6c8cae0d12d1f65c204bb547aed35b6c.mkv (3.7 GB)



General
Complete name : ./6c8cae0d12d1f65c204bb547aed35b6c.mkv
Format : Matroska
Format version : Version 4 / Version 2
File size : 3.72 GiB
Duration : 1 h 26 min
Overall bit rate : 6 193 kb/s
Encoded date : UTC 2020-11-06 21:37:49 / UTC 2020-11-06T02:42:58Z
Writing application : mkvmerge v47.0.0 ('Black Flag') 64-bit
Writing library : libebml v1.3.10 + libmatroska v1.5.2 / Lavf57.7.2

Video
ID : 1
Format : AVC
Format/Info : Advanced Video Codec
Format profile : High@L4
Format settings : CABAC / 4 Ref Frames
Format settings, CABAC : Yes
Format settings, RefFrames : 4 frames
Codec ID : V_MPEG4/ISO/AVC
Duration : 1 h 26 min
Bit rate : 5 760 kb/s
Width : 1 920 pixels
Height : 1 080 pixels
Display aspect ratio : 16:9
Frame rate mode : Constant
Frame rate : 23.976 (24000/1001) FPS
Color space : YUV
Chroma subsampling : 4:2:0
Bit depth : 8 bits
Scan type : Progressive
Bits/(Pixel*Frame) : 0.116
Stream size : 3.38 GiB (91%)
Writing library : x264 core 155 r2901 7d0ff22
Encoding settings : cabac=1 / ref=4 / deblock=1:-3:-3 / analyse=0x3:0x133 / me=umh / subme=9 / psy=1 / psy_rd=1.10:0.25 / mixed_ref=1 / me_range=32 / chroma_me=1 / trellis=2 / 8x8dct=1 / cqm=0 / deadzone=6,6 / fast_pskip=1 / chroma_qp_offset=-4 / threads=34 / lookahead_threads=3 / sliced_threads=0 / nr=0 / decimate=1 / interlaced=0 / bluray_compat=0 / constrained_intra=0 / bframes=6 / b_pyramid=2 / b_adapt=2 / b_bias=0 / direct=3 / weightb=1 / open_gop=0 / weightp=2 / keyint=240 / keyint_min=24 / scenecut=40 / intra_refresh=0 / rc_lookahead=40 / rc=2pass / mbtree=1 / bitrate=5760 / ratetol=1.0 / qcomp=0.60 / qpmin=0 / qpmax=69 / qpstep=4 / cplxblur=20.0 / qblur=0.5 / vbv_maxrate=20000 / vbv_bufsize=25000 / nal_hrd=none / filler=0 / ip_ratio=1.40 / aq=1:1.00
Language : English
Default : Yes
Forced : No
Color range : Limited
Color primaries : BT.709
Transfer characteristics : BT.709
Matrix coefficients : BT.709
Statistics Tags Issue : mkvmerge v47.0.0 ('Black Flag') 64-bit 2020-11-06 21:37:49 / mkvmerge v47.0.0 ('Black Flag') 64-bit 2020-11-06 21:37:49 / UTC 2020-11-06T02:42:58Z
FromStats_BitRate : 5743237
FromStats_Duration : 01:26:04.535000000
FromStats_FrameCount : 123825
FromStats_StreamSize : 3707643730

Audio
ID : 2
Format : AC-3
Format/Info : Audio Coding 3
Format settings, Endianness : Big
Codec ID : A_AC3
Duration : 1 h 26 min
Bit rate mode : Constant
Bit rate : 448 kb/s
Channel(s) : 6 channels
Channel positions : Front: L C R, Side: L R, LFE
Sampling rate : 48.0 kHz
Frame rate : 31.250 FPS (1536 SPF)
Bit depth : 16 bits
Compression mode : Lossy
Stream size : 276 MiB (7%)
Title : Surround
Language : Korean
Service kind : Complete Main
Default : Yes
Forced : No
Statistics Tags Issue : mkvmerge v47.0.0 ('Black Flag') 64-bit 2020-11-06 21:37:49 / mkvmerge v47.0.0 ('Black Flag') 64-bit 2020-11-06 21:37:49 / UTC 2020-11-06T02:42:58Z
FromStats_BitRate : 448000
FromStats_Duration : 01:26:04.512000000
FromStats_FrameCount : 161391
FromStats_StreamSize : 289212672

Text
ID : 3
Format : UTF-8
Codec ID : S_TEXT/UTF8
Codec ID/Info : UTF-8 Plain Text
Title : Forced
Language : English
Default : Yes
Forced : Yes
Statistics Tags Issue : mkvmerge v47.0.0 ('Black Flag') 64-bit 2020-11-06 21:37:49 / mkvmerge v47.0.0 ('Black Flag') 64-bit 2020-11-06 21:37:49 / UTC 2020-11-06T02:42:58Z
FromStats_BitRate : 41
FromStats_Duration : 01:25:48.435000000
FromStats_FrameCount : 1036
FromStats_StreamSize : 26641

Menu
00:00:00.000 : :Chapter 1
00:06:10.120 : :Chapter 2
00:12:38.091 : :Chapter 3
00:21:54.480 : :Chapter 4
00:28:46.183 : :Chapter 5
00:33:03.773 : :Chapter 6
00:39:10.056 : :Chapter 7
00:46:27.326 : :Chapter 8
00:56:20.043 : :Chapter 9
01:01:06.454 : :Chapter 10
01:08:13.089 : :Chapter 11
01:16:15.112 : :Chapter 12





Yourself and Yours (2016)


Yourself and Yours (2016)


Yourself and Yours (2016)


Yourself and Yours (2016)


Yourself and Yours (2016)