Tags
Language
Tags

Zoe (2018)

Posted By: Without
1080p (FullHD) / BDRip IMDb
Zoe (2018)

Zoe (2018)
BDRip | MKV | 720x300 | AVC@359 kb/s | English AAC@117 kb/s | 2 channels | 1 h 44 min | 356 MB
BRRip | AVI | 720x304 | XviD@1429 kb/s | English AC3@448 kb/s | 6 channels | 1 h 44 min | 1.37 GB
BDRip 720p | MKV | 1280x536 | AVC@4488 kb/s | English DTS@1509 kb/s | 6 channels | 1 h 44 min | 4.37 GB
BDRip 1080p | MKV | 1920x808 | AVC@8995 kb/s | English DTS@1509 kb/s | 6 channels | 1 h 44 min | 7.65 GB
Genre: Romance | Sci-Fi

A story about how synthetic humans can feel and even love, and how the people they are involved with react to this concept.



General
zoe.2018.bdrip.x264-veto.mkv
Format : Matroska
Format version : Version 4 / Version 2
File size : 357 MiB
Duration : 1 h 44 min
Overall bit rate : 478 kb/s
Encoded date : UTC 2018-11-07 18:08:25
Writing application : mkvmerge v19.0.0 ('Brave Captain') 64-bit
Writing library : libebml v1.3.5 + libmatroska v1.4.8

Video
ID : 1
Format : AVC
Format/Info : Advanced Video Codec
Format profile : High@L3.1
Format settings, CABAC : Yes
Format settings, ReFrames : 5 frames
Codec ID : V_MPEG4/ISO/AVC
Duration : 1 h 44 min
Bit rate : 359 kb/s
Width : 720 pixels
Height : 300 pixels
Display aspect ratio : 2.40:1
Frame rate mode : Constant
Frame rate : 23.976 (23976/1000) FPS
Original frame rate : 23.976 (24000/1001) FPS
Color space : YUV
Chroma subsampling : 4:2:0
Bit depth : 8 bits
Scan type : Progressive
Bits/(Pixel*Frame) : 0.069
Stream size : 268 MiB (75%)
Writing library : x264 core 157 r2935 545de2f
Encoding settings : cabac=1 / ref=5 / deblock=1:-2:-2 / analyse=0x3:0x133 / me=hex / subme=8 / psy=1 / psy_rd=1.00:0.00 / mixed_ref=1 / me_range=16 / chroma_me=1 / trellis=2 / 8x8dct=1 / cqm=0 / deadzone=21,11 / fast_pskip=1 / chroma_qp_offset=-2 / threads=16 / lookahead_threads=2 / sliced_threads=0 / nr=0 / decimate=1 / interlaced=0 / bluray_compat=0 / constrained_intra=0 / bframes=3 / b_pyramid=2 / b_adapt=1 / b_bias=0 / direct=3 / weightb=1 / open_gop=0 / weightp=2 / keyint=250 / keyint_min=23 / scenecut=40 / intra_refresh=0 / rc_lookahead=50 / rc=crf / mbtree=1 / crf=19.0 / qcomp=0.60 / qpmin=0 / qpmax=69 / qpstep=4 / ip_ratio=1.40 / aq=1:1.00
Default : Yes
Forced : No
Color range : Limited
Matrix coefficients : BT.709

Audio
ID : 2
Format : AAC
Format/Info : Advanced Audio Codec
Format profile : LC
Codec ID : A_AAC
Duration : 1 h 44 min
Bit rate : 117 kb/s
Channel(s) : 2 channels
Channel positions : Front: L R
Sampling rate : 48.0 kHz
Frame rate : 46.875 FPS (1024 spf)
Compression mode : Lossy
Delay relative to video : 9 ms
Stream size : 87.4 MiB (25%)
Language : English
Default : Yes
Forced : No

Menu
00:00:00.000 : en:00:00:00.000
00:04:13.462 : en:00:04:13.462
00:10:58.116 : en:00:10:58.116
00:16:10.094 : en:00:16:10.094
00:20:28.436 : en:00:20:28.436
00:25:21.854 : en:00:25:21.854
00:30:06.638 : en:00:30:06.638
00:36:25.934 : en:00:36:25.934
00:42:09.485 : en:00:42:09.485
00:44:45.725 : en:00:44:45.725
00:51:32.047 : en:00:51:32.047
00:57:27.653 : en:00:57:27.653
01:04:16.019 : en:01:04:16.019
01:08:08.001 : en:01:08:08.001
01:13:20.354 : en:01:13:20.354
01:18:10.811 : en:01:18:10.811
01:23:29.671 : en:01:23:29.671
01:30:35.680 : en:01:30:35.680
01:38:23.773 : en:01:38:23.773


General
Zoe.2018.BRRip.XviD.AC3-EVO.avi
Format : AVI
Format/Info : Audio Video Interleave
File size : 1.37 GiB
Duration : 1 h 44 min
Overall bit rate : 1 886 kb/s
Writing library : VirtualDub build 32593/release

Video
ID : 0
Format : MPEG-4 Visual
Format profile : Advanced Simple@L5
Format settings, BVOP : 2
Format settings, QPel : No
Format settings, GMC : No warppoints
Format settings, Matrix : Default (H.263)
Muxing mode : Packed bitstream
Codec ID : XVID
Codec ID/Hint : XviD
Duration : 1 h 44 min
Bit rate : 1 429 kb/s
Width : 720 pixels
Height : 304 pixels
Display aspect ratio : 2.35:1
Frame rate : 23.976 (24000/1001) FPS
Color space : YUV
Chroma subsampling : 4:2:0
Bit depth : 8 bits
Scan type : Progressive
Compression mode : Lossy
Bits/(Pixel*Frame) : 0.272
Stream size : 1.04 GiB (76%)
Writing library : XviD 67

Audio
ID : 1
Format : AC-3
Format/Info : Audio Coding 3
Mode extension : CM (complete main)
Format settings, Endianness : Big
Codec ID : 2000
Duration : 1 h 44 min
Bit rate mode : Constant
Bit rate : 448 kb/s
Channel(s) : 6 channels
Channel positions : Front: L C R, Side: L R, LFE
Sampling rate : 48.0 kHz
Frame rate : 31.250 FPS (1536 spf)
Bit depth : 16 bits
Compression mode : Lossy
Stream size : 334 MiB (24%)
Alignment : Aligned on interleaves
Interleave, duration : 42 ms (1.00 video frame)
Interleave, preload duration : 512 ms


General
zoe.2018.720p.bluray.x264-getit.mkv
Format : Matroska
Format version : Version 4 / Version 2
File size : 4.37 GiB
Duration : 1 h 44 min
Overall bit rate : 5 999 kb/s
Encoded date : UTC 2018-11-07 18:18:37
Writing application : mkvmerge v7.9.0 ('Birds') 64bit
Writing library : libebml v1.3.1 + libmatroska v1.4.2

Video
ID : 1
Format : AVC
Format/Info : Advanced Video Codec
Format profile : High@L4.1
Format settings, CABAC : Yes
Format settings, ReFrames : 5 frames
Codec ID : V_MPEG4/ISO/AVC
Duration : 1 h 44 min
Bit rate : 4 488 kb/s
Width : 1 280 pixels
Height : 536 pixels
Display aspect ratio : 2.40:1
Frame rate mode : Constant
Frame rate : 23.976 (24000/1001) FPS
Color space : YUV
Chroma subsampling : 4:2:0
Bit depth : 8 bits
Scan type : Progressive
Bits/(Pixel*Frame) : 0.273
Stream size : 3.27 GiB (75%)
Writing library : x264 core 157 r2935 545de2f
Encoding settings : cabac=1 / ref=5 / deblock=1:0:0 / analyse=0x3:0x133 / me=umh / subme=7 / psy=1 / psy_rd=1.00:0.00 / mixed_ref=1 / me_range=16 / chroma_me=1 / trellis=2 / 8x8dct=1 / cqm=0 / deadzone=21,11 / fast_pskip=0 / chroma_qp_offset=-2 / threads=17 / lookahead_threads=2 / sliced_threads=0 / nr=0 / decimate=1 / interlaced=0 / bluray_compat=0 / constrained_intra=0 / bframes=3 / b_pyramid=2 / b_adapt=1 / b_bias=0 / direct=3 / weightb=1 / open_gop=0 / weightp=2 / keyint=250 / keyint_min=23 / scenecut=40 / intra_refresh=0 / rc_lookahead=50 / rc=2pass / mbtree=1 / bitrate=4488 / ratetol=1.0 / qcomp=0.60 / qpmin=0 / qpmax=69 / qpstep=4 / cplxblur=20.0 / qblur=0.5 / ip_ratio=1.40 / aq=1:1.00
Language : English
Default : Yes
Forced : No

Audio
ID : 2
Format : DTS
Format/Info : Digital Theater Systems
Mode : 16
Format settings, Endianness : Big
Codec ID : A_DTS
Duration : 1 h 44 min
Bit rate mode : Constant
Bit rate : 1 509 kb/s
Channel(s) : 6 channels
Channel positions : Front: L C R, Side: L R, LFE
Sampling rate : 48.0 kHz
Frame rate : 93.750 FPS (512 spf)
Bit depth : 24 bits
Compression mode : Lossy
Stream size : 1.10 GiB (25%)
Title : DTS
Language : English
Default : Yes
Forced : No

Menu
00:00:00.000 : en:00:00:00.000
00:04:13.462 : en:00:04:13.462
00:10:58.116 : en:00:10:58.116
00:16:10.094 : en:00:16:10.094
00:20:28.436 : en:00:20:28.436
00:25:21.854 : en:00:25:21.854
00:30:06.638 : en:00:30:06.638
00:36:25.934 : en:00:36:25.934
00:42:09.485 : en:00:42:09.485
00:44:45.725 : en:00:44:45.725
00:51:32.047 : en:00:51:32.047
00:57:27.653 : en:00:57:27.653
01:04:16.019 : en:01:04:16.019
01:08:08.001 : en:01:08:08.001
01:13:20.354 : en:01:13:20.354
01:18:10.811 : en:01:18:10.811
01:23:29.671 : en:01:23:29.671
01:30:35.680 : en:01:30:35.680
01:38:23.773 : en:01:38:23.773


General
zoe.2018.1080p.bluray.x264-veto.mkv
Format : Matroska
Format version : Version 4 / Version 2
File size : 7.65 GiB
Duration : 1 h 44 min
Overall bit rate : 10.5 Mb/s
Encoded date : UTC 2018-11-07 17:46:03
Writing application : mkvmerge v19.0.0 ('Brave Captain') 64-bit
Writing library : libebml v1.3.5 + libmatroska v1.4.8

Video
ID : 1
Format : AVC
Format/Info : Advanced Video Codec
Format profile : High@L4.1
Format settings, CABAC : Yes
Format settings, ReFrames : 5 frames
Codec ID : V_MPEG4/ISO/AVC
Duration : 1 h 44 min
Bit rate : 8 995 kb/s
Width : 1 920 pixels
Height : 808 pixels
Display aspect ratio : 2.40:1
Frame rate mode : Constant
Frame rate : 23.976 (23976/1000) FPS
Original frame rate : 23.976 (24000/1001) FPS
Color space : YUV
Chroma subsampling : 4:2:0
Bit depth : 8 bits
Scan type : Progressive
Bits/(Pixel*Frame) : 0.242
Stream size : 6.55 GiB (86%)
Writing library : x264 core 157 r2935 545de2f
Encoding settings : cabac=1 / ref=5 / deblock=1:1:1 / analyse=0x3:0x133 / me=umh / subme=8 / psy=1 / psy_rd=1.00:0.00 / mixed_ref=1 / me_range=16 / chroma_me=1 / trellis=1 / 8x8dct=1 / cqm=0 / deadzone=21,11 / fast_pskip=0 / chroma_qp_offset=-2 / threads=16 / lookahead_threads=2 / sliced_threads=0 / nr=0 / decimate=1 / interlaced=0 / bluray_compat=0 / constrained_intra=0 / bframes=3 / b_pyramid=2 / b_adapt=2 / b_bias=0 / direct=3 / weightb=1 / open_gop=0 / weightp=2 / keyint=250 / keyint_min=23 / scenecut=40 / intra_refresh=0 / rc_lookahead=50 / rc=2pass / mbtree=1 / bitrate=8995 / ratetol=1.0 / qcomp=0.60 / qpmin=0 / qpmax=69 / qpstep=4 / cplxblur=20.0 / qblur=0.5 / ip_ratio=1.40 / aq=1:1.00
Default : Yes
Forced : No

Audio
ID : 2
Format : DTS
Format/Info : Digital Theater Systems
Mode : 16
Format settings, Endianness : Big
Codec ID : A_DTS
Duration : 1 h 44 min
Bit rate mode : Constant
Bit rate : 1 509 kb/s
Channel(s) : 6 channels
Channel positions : Front: L C R, Side: L R, LFE
Sampling rate : 48.0 kHz
Frame rate : 93.750 FPS (512 spf)
Bit depth : 24 bits
Compression mode : Lossy
Stream size : 1.10 GiB (14%)
Language : English
Default : Yes
Forced : No

Menu
00:00:00.000 : en:00:00:00.000
00:04:13.462 : en:00:04:13.462
00:10:58.116 : en:00:10:58.116
00:16:10.094 : en:00:16:10.094
00:20:28.436 : en:00:20:28.436
00:25:21.854 : en:00:25:21.854
00:30:06.638 : en:00:30:06.638
00:36:25.934 : en:00:36:25.934
00:42:09.485 : en:00:42:09.485
00:44:45.725 : en:00:44:45.725
00:51:32.047 : en:00:51:32.047
00:57:27.653 : en:00:57:27.653
01:04:16.019 : en:01:04:16.019
01:08:08.001 : en:01:08:08.001
01:13:20.354 : en:01:13:20.354
01:18:10.811 : en:01:18:10.811
01:23:29.671 : en:01:23:29.671
01:30:35.680 : en:01:30:35.680
01:38:23.773 : en:01:38:23.773



BDRip Screenshots

Zoe (2018)

Zoe (2018)

Zoe (2018)


BRRip Screenshots

Zoe (2018)

Zoe (2018)

Zoe (2018)


BDRip 720p Screenshots

Zoe (2018)

Zoe (2018)

Zoe (2018)


BDRip 1080p Screenshots

Zoe (2018)

Zoe (2018)

Zoe (2018)


Come Visit My Blog (•‿•)