Zoot - Remote Control War (2013)

Posted By: Polik88
Zoot - Remote Control War (2013)

Zoot - Remote Control War (2013)
English | MP4 | 832x468 | AVC 1799 Kbps 29.970 fps | AC3 128 Kbps 48.0 khz | 51mn 57s | 717 MB
Genre: Documentary

Remote Control War examines the implications and effects of the increased use of robots, drones and other remotely controlled devices in modern military applications, both overt and covert. Remote Control War illustrates how warfare is being revolutionized in a monumental shift unlike anything in our human history. The current campaigns in Iraq and Afghanistan exemplify the world’s first Robotic War. The American robotic fleet, almost non-existent when the US and its allies invaded Iraq in 2003, has today grown to number 7,000 robots in the air and 12,000 others on the ground. Some 43 other countries, including Canada, are now using robots in combat.
General
Complete name : Remote.Control.War.mp4
Format : MPEG-4
Format profile : Base Media
Codec ID : isom
File size : 717 MiB
Duration : 51mn 57s
Overall bit rate : 1 930 Kbps
Encoded date : UTC 2013-01-30 17:34:07
Tagged date : UTC 2013-01-30 17:34:07
Writing application : Lavf51.12.1

Video
ID : 1
Format : AVC
Format/Info : Advanced Video Codec
Format profile : High@L3.1
Format settings, CABAC : No
Format settings, ReFrames : 1 frame
Format settings, GOP : M=1, N=12
Codec ID : avc1
Codec ID/Info : Advanced Video Coding
Duration : 51mn 57s
Bit rate : 1 799 Kbps
Width : 832 pixels
Height : 468 pixels
Display aspect ratio : 16:9
Frame rate mode : Constant
Frame rate : 29.970 fps
Color space : YUV
Chroma subsampling : 4:2:0
Bit depth : 8 bits
Scan type : Progressive
Bits/(Pixel*Frame) : 0.154
Stream size : 669 MiB (93%)
Encoded date : UTC 2013-01-30 17:34:07
Tagged date : UTC 2013-01-30 17:34:07

Audio
ID : 2
Format : AC-3
Format/Info : Audio Coding 3
Mode extension : CM (complete main)
Format settings, Endianness : Big
Codec ID : ac-3
Duration : 51mn 57s
Bit rate mode : Constant
Bit rate : 128 Kbps
Channel(s) : 2 channels
Channel positions : Front: L R
Sampling rate : 48.0 KHz
Bit depth : 16 bits
Compression mode : Lossy
Stream size : 47.6 MiB (7%)
Encoded date : UTC 2013-01-30 17:34:07
Tagged date : UTC 2013-01-30 17:34:07

Screenshots

Zoot - Remote Control War (2013)

Zoot - Remote Control War (2013)

Zoot - Remote Control War (2013)

Zoot - Remote Control War (2013)

no mirrors please, Follow The Rules
Visit Polik88 Blog Here
no password