Accidental Courtesy: Daryl Davis, Race & America (2016)

Posted By: JohnSmith
1080p (FullHD) / WEB-DL IMDb
Accidental Courtesy: Daryl Davis, Race & America (2016)

Accidental Courtesy: Daryl Davis, Race & America (2016)
WEB-DL 1080p | MKV / AVC@7500 kb/s | 1920x1080 | 1h 40mn | 5.42 GB
English: AC3, 384 kb/s (6 ch) | Subtitles: English
Genre: Documentary | Biography | History

Daryl Davis is an accomplished musician who was played all over the world. He also has an unusual hobby, particularly for a middle aged black man. When not displaying his musical chops, Daryl likes to meet and befriend members of the Ku Klux Klan. When many of these people eventually leave the Klan with Daryl's support, Daryl keeps their robes and hoods; building his collection piece by piece, story by story, person by person, in hopes of one day opening a museum of the Klan.

IMDB - 2 wins & 3 nominations.



General
Unique ID : 190077698470709060004340169910129243946 (0x8EFFA2147266CFDC83223A6F4097B72A)
Complete name : D:\Downloads\accidental.courtesy.daryl.davis.race.and.america.2016.1080p.web.x264-skgtv.mkv
Format : Matroska
Format version : Version 4 / Version 2
File size : 5.42 GiB
Duration : 1 h 40 min
Overall bit rate mode : Variable
Overall bit rate : 7 707 kb/s
Encoded date : UTC 2017-11-26 21:45:43 / UTC 2017-02-10 21:16:26
Writing application : mkvmerge v11.0.0 ('Alive') 64bit
Writing library : libebml v1.3.4 + libmatroska v1.4.5 / Lavf58.0.0

Video
ID : 1
Format : AVC
Format/Info : Advanced Video Codec
Format profile : Main@L4
Format settings, CABAC : Yes
Format settings, ReFrames : 3 frames
Codec ID : V_MPEG4/ISO/AVC
Duration : 1 h 40 min
Bit rate mode : Variable
Bit rate : 7 500 kb/s
Maximum bit rate : 11.2 Mb/s
Width : 1 920 pixels
Height : 1 080 pixels
Display aspect ratio : 16:9
Frame rate mode : Constant
Frame rate : 23.976 (24000/1001) FPS
Color space : YUV
Chroma subsampling : 4:2:0
Bit depth : 8 bits
Scan type : Progressive
Bits/(Pixel*Frame) : 0.151
Stream size : 5.04 GiB (93%)
Writing library : x264 core 118
Encoding settings : cabac=1 / ref=3 / deblock=1:0:0 / analyse=0x1:0x111 / me=umh / subme=10 / psy=1 / psy_rd=1.00:0.00 / mixed_ref=1 / me_range=24 / chroma_me=1 / trellis=2 / 8x8dct=0 / cqm=0 / deadzone=21,11 / fast_pskip=1 / chroma_qp_offset=-2 / threads=6 / sliced_threads=0 / nr=0 / decimate=1 / interlaced=0 / bluray_compat=0 / constrained_intra=0 / bframes=2 / b_pyramid=0 / b_adapt=2 / b_bias=0 / direct=3 / weightb=1 / open_gop=0 / weightp=2 / keyint=48 / keyint_min=25 / scenecut=0 / intra_refresh=0 / rc_lookahead=0 / rc=2pass / mbtree=1 / bitrate=7500 / ratetol=1.0 / qcomp=0.50 / qpmin=6 / qpmax=51 / qpstep=4 / cplxblur=20.0 / qblur=0.5 / vbv_maxrate=11250 / vbv_bufsize=15000 / nal_hrd=vbr / ip_ratio=1.40 / aq=1:1.00
Default : Yes
Forced : No
Statistics Tags Issue : mkvmerge v11.0.0 ('Alive') 64bit 2017-11-26 21:45:43 / mkvmerge v11.0.0 ('Alive') 64bit 2017-11-26 21:45:43 / UTC 2017-02-10 21:16:26
FromStats_BitRate : 7321344
FromStats_Duration : 01:40:41.369000000
FromStats_FrameCount : 144848
FromStats_StreamSize : 5528867732

Audio
ID : 2
Format : AC-3
Format/Info : Audio Coding 3
Format settings, Endianness : Big
Codec ID : A_AC3
Duration : 1 h 40 min
Bit rate mode : Constant
Bit rate : 384 kb/s
Channel(s) : 6 channels
Channel positions : Front: L C R, Side: L R, LFE
Sampling rate : 48.0 kHz
Frame rate : 31.250 FPS (1536 spf)
Bit depth : 16 bits
Compression mode : Lossy
Stream size : 277 MiB (5%)
Language : English
Service kind : Complete Main
Default : Yes
Forced : No
Encoded date : UTC 2017-02-10 21:16:26
HANDLER_NAME : Audio Media Handler
Statistics Tags Issue : mkvmerge v11.0.0 ('Alive') 64bit 2017-11-26 21:45:43 / mkvmerge v11.0.0 ('Alive') 64bit 2017-11-26 21:45:43 / UTC 2017-02-10 21:16:26
FromStats_BitRate : 384000
FromStats_Duration : 01:40:41.120000000
FromStats_FrameCount : 188785
FromStats_StreamSize : 289973760

Text
ID : 3
Format : UTF-8
Codec ID : S_TEXT/UTF8
Codec ID/Info : UTF-8 Plain Text
Title : English
Language : English
Default : No
Forced : No
Statistics Tags Issue : mkvmerge v11.0.0 ('Alive') 64bit 2017-11-26 21:45:43 / mkvmerge v11.0.0 ('Alive') 64bit 2017-11-26 21:45:43 / UTC 2017-02-10 21:16:26
FromStats_BitRate : 162
FromStats_Duration : 01:37:27.341000000
FromStats_FrameCount : 1764
FromStats_StreamSize : 118549




Screenshots

Accidental Courtesy: Daryl Davis, Race & America (2016)

Accidental Courtesy: Daryl Davis, Race & America (2016)

Accidental Courtesy: Daryl Davis, Race & America (2016)