(Arte) Architectures : La Galleria Umberto 1er (2011)

Posted By: Morocco
(Arte) Architectures : La Galleria Umberto 1er (2011)

(Arte) Architectures : La Galleria Umberto 1er (2011)
TNT-Rip by Clo2 | French | 28min | 640 x 368 | 25.000 fps | Avi | MPEG-4 XviD @ 894 Kbps | MP3 @ 112 Kbps | 200 MB
Genre : Documentaire

La Galleria Umberto 1er de Naples est l’un des derniers passages couverts construits en Europe. Elle est à la fois l’accomplissement et le chant du cygne de l’une des figures architecturales les plus emblématiques du XIXe siècle, qui l’a inventé et auquel il n’a pas survécu, sinon sous la forme appauvrie et dégradée de la galerie marchande ou du mall.

Les passages couverts apparaissent et se multiplient d’abord en France puis en Europe à partir de 1820. Il s’agit de créer au cœur des villes des espaces protégés répondant à deux objectifs : percer de nouvelles rues exclusivement piétonnes pour désengorger l’ancien tissu et offrir au commerce de détail un lieu ouvert à tous, mais à l’abri des intempéries. Cette dualité est la marque du passage qui désigne à la fois la voie de communication et l’ensemble de bâtiments qui enveloppent cette voie, le vide et le plein, faisant du passage le lieu de l’ambiguïté : ambiguïté entre espaces privé et public mais aussi entre mythe de l’aménagement urbain et prosaïque, invention de la spéculation immobilière.

La Galleria Umberto 1er appartient à la dernière génération de passages, la phase monumentale. Sa création est la conséquence directe de l’épidémie de choléra qui frappe l’Italie en 1884. On décide alors de raser le quartier napolitain où l’épidémie a pris naissance et de construire à la place un énorme passage couvert symbole de modernité et de progrès. Il s’agit aussi de rivaliser avec Milan qui a inauguré, vingt-cinq ans plus tôt, la mode des passages monumentaux avec la galerie Vittorio Emmanuele. Pour Naples, qui adopte pour son passage le même plan cruciforme, l’objectif est de faire plus riche et plus grand. Il s’agit enfin de gagner de l’argent en construisant au cœur de la ville des milliers de mètres carrés de boutiques, de bureaux et d’appartements bourgeois, tout un quartier luxueux qui veut se démarquer de l’ancienne ville. Ce quartier se veut autonome à tel point que la totalité du dessous de la galerie est aménagée comme une petite ville souterraine vouée à la vie nocturne, au loisir et au plaisir comprenant restaurants, cafés, salles de jeu et de billard, et même un théâtre – le premier café chantant d’Italie, inauguré un an à peine après le Moulin Rouge de Paris.

La galerie ne parviendra jamais à s’imposer comme cette enclave de luxe dont rêvaient ses promoteurs. Les appartements, inadaptés au climat napolitain, se vendront mal. Ils seront progressivement occupés par des ateliers et des bureaux, tandis que le théâtre du sous-sol deviendra un cinéma de quartier, puis un cinéma porno avant de fermer définitivement dans les années cinquante. Pourtant le projet est une formidable réussite. Il n’est pas de lieu à Naples dans lequel les napolitains de toutes les couches sociales se reconnaissent mieux que dans cette galerie aux airs de palais renaissance, mâtiné d’arc de triomphe romain. C’est le succès de la conception monumentale de cet espace public, abrité par la grande verrière, mais ouvert par tout temps et à tous.

Format : AVI
Format/Info : Audio Video Interleave
File size : 200 MiB
Duration : 27mn 30s
Overall bit rate : 1 016 Kbps
Writing application : VirtualDubMod 1.5.10.3 Fr | www.virtualdub-fr.org || (build 2550/release)
Writing library : VirtualDubMod build 2550/release

Video
ID : 0
Format : MPEG-4 Visual
Format profile : Advanced Simple@L5
Format settings, BVOP : 2
Format settings, QPel : No
Format settings, GMC : No warppoints
Format settings, Matrix : Default (MPEG)
Muxing mode : Packed bitstream
Codec ID : XVID
Codec ID/Hint : XviD
Duration : 27mn 30s
Bit rate : 894 Kbps
Width : 640 pixels
Height : 368 pixels
Display aspect ratio : 16:9
Frame rate : 25.000 fps
Color space : YUV
Chroma subsampling : 4:2:0
Bit depth : 8 bits
Scan type : Progressive
Compression mode : Lossy
Bits/(Pixel*Frame) : 0.152
Stream size : 176 MiB (88%)
Writing library : XviD 57

Audio
ID : 1
Format : MPEG Audio
Format version : Version 1
Format profile : Layer 3
Mode : Joint stereo
Codec ID : 55
Codec ID/Hint : MP3
Duration : 27mn 30s
Bit rate mode : Constant
Bit rate : 112 Kbps
Channel(s) : 2 channels
Sampling rate : 48.0 KHz
Compression mode : Lossy
Stream size : 22.0 MiB (11%)
Alignment : Aligned on interleaves
Interleave, duration : 40 ms (1.00 video frame)
Interleave, preload duration : 504 ms
Writing library : LAME3.98r
Encoding settings : -m j -V 4 -q 3 -lowpass 15.6 -b 112


(Arte) Architectures : La Galleria Umberto 1er (2011)

(Arte) Architectures : La Galleria Umberto 1er (2011)

(Arte) Architectures : La Galleria Umberto 1er (2011)

~ Liens interchangeables ~



No Pass ;)

Un merci ?

D'autres "Architectures" ? >> Listing des documentaires