(Arte) Architectures : Le musée juif de Berlin (2011)

Posted By: Morocco
(Arte) Architectures : Le musée juif de Berlin (2011)

(Arte) Architectures : Le musée juif de Berlin (2011)
TNT-Rip by Clo2 | French | 27min | 640 x 368 | 25.000 fps | Avi | MPEG-4 XviD @ 895 Kbps | MP3 @ 112 Kbps | 197 MB
Genre : Documentaire

Le bâtiment construit à Berlin entre 1993 et 1998 pose d’emblée une question que l’architecture n’a pas l’habitude d’aborder : celle de ses propres limites. Comment l’architecture peut-elle construire là où tout a été détruit, comment peut-elle se confronter à l’histoire et surtout à cette histoire-là ?

La réponse de Daniel Libeskind, dont ce fut le premier bâtiment construit, est à la fois littérale et secrète. Elle est littérale dans la forme extérieure du bâtiment, un « geste » expressionniste, un zigzag, une extraordinaire ligne brisée, qui plie tout son volume d’un bout à l’autre de la parcelle et qui incarne pour l’architecte toute la violence, toutes les cassures de l’histoire des Juifs en Allemagne. Elle est secrète car derrière ce geste expressionniste plastique se cache un autre bâtiment, un bâtiment fantôme sur lequel le visiteur ne cesse de buter sans jamais pouvoir le comprendre tout à fait, tout au long d’un parcours qui joue sur le déséquilibre et une perte physique des repères, déstabilisante jusqu’au malaise.

Ce n’est pas une aimable promenade muséale mais un trajet aux allures d’épreuve, dont les jalons s’appellent La tour de l’Holocauste, Les jardin de l’Exil, Les Vides. Ces Vides sont des tours de béton, totalement invisibles de l’extérieur, qui traversent le bâtiment sur toute sa hauteur. Il en y en a six de forme différente, elles ne contiennent rien, on n’y entre pas. Au sein du musée, envahi par une collection pléthorique qui évoque la longue histoire de la présence juive en Allemagne, elles incarnent la dernière figure du judaïsme allemand, celle de l’ absence. Et le refus de toute nostalgie, de tout commentaire.

Jamais aucun bâtiment n’a réussi a incarner à ce point la contradiction entre ce qui doit absolument être dit et ce qui ne peut jamais l’être. Surnommé le Blitz, « l’éclair », par les Berlinois, le musée juif qui a connu une histoire institutionnelle particulièrement tourmentée, est aujourd’hui l’un des bâtiment les plus visités de Berlin.

Format : AVI
Format/Info : Audio Video Interleave
File size : 197 MiB
Duration : 27mn 6s
Overall bit rate : 1 017 Kbps
Writing application : VirtualDubMod 1.5.10.3 Fr | www.virtualdub-fr.org || (build 2550/release)
Writing library : VirtualDubMod build 2550/release

Video
ID : 0
Format : MPEG-4 Visual
Format profile : Advanced Simple@L5
Format settings, BVOP : 2
Format settings, QPel : No
Format settings, GMC : No warppoints
Format settings, Matrix : Default (MPEG)
Muxing mode : Packed bitstream
Codec ID : XVID
Codec ID/Hint : XviD
Duration : 27mn 6s
Bit rate : 895 Kbps
Width : 640 pixels
Height : 368 pixels
Display aspect ratio : 16:9
Frame rate : 25.000 fps
Color space : YUV
Chroma subsampling : 4:2:0
Bit depth : 8 bits
Scan type : Progressive
Compression mode : Lossy
Bits/(Pixel*Frame) : 0.152
Stream size : 174 MiB (88%)
Writing library : XviD 57

Audio
ID : 1
Format : MPEG Audio
Format version : Version 1
Format profile : Layer 3
Mode : Joint stereo
Mode extension : MS Stereo
Codec ID : 55
Codec ID/Hint : MP3
Duration : 27mn 6s
Bit rate mode : Constant
Bit rate : 112 Kbps
Channel(s) : 2 channels
Sampling rate : 48.0 KHz
Compression mode : Lossy
Stream size : 21.7 MiB (11%)
Alignment : Aligned on interleaves
Interleave, duration : 40 ms (1.00 video frame)
Interleave, preload duration : 504 ms
Writing library : LAME3.98r
Encoding settings : -m j -V 4 -q 3 -lowpass 15.6 -b 112


(Arte) Architectures : Le musée juif de Berlin (2011)

(Arte) Architectures : Le musée juif de Berlin (2011)

~ Liens interchangeables ~



No Pass ;)

Un merci ?

D'autres "Architectures" ? >> Listing des documentaires