(Arte) Architectures : L'Opéra Garnier (2011)

Posted By: Morocco
(Arte) Architectures : L'Opéra Garnier (2011)

(Arte) Architectures : L'Opéra Garnier (2011)
TNT-Rip by Clo2 | French | 28min | 640 x 368 | 25.000 fps | Avi | MPEG-4 XviD @ 895 Kbps | MP3 @ 112 Kbps | 207 MB
Genre : Documentaire

L’édifice conçu par Garnier est considéré comme l’un des joyaux de l’architecture du XIXe siècle. Il étonne par la variété et la richesse des matériaux utilisés, tant à l’intérieur qu’à l’extérieur, et par la profusion de ses ornements.

Dès son inauguration, l’Opéra a connu un engouement sans précédent. Plus que la fonction, c’est le monument, le palais au nom de son architecte, qui jouit d’une énorme popularité. L’Opéra Garnier fait des émules dans toute l’Europe, où de nombreux architectes vont s’inspirer de son style et des principes qu’il met en œuvre.

Au moment où Charles Garnier se présente au concours, il est un jeune architecte quasiment inconnu du public. Issu d’un milieu modeste, il a fait ses classes à l’École des beaux-arts puis il devient lauréat du prestigieux Prix de Rome. Charles Garnier remporte le concours de l’Opéra, le 29 décembre 1860, parmi les quelques 171 projets présentés dans l’anonymat. Les travaux, soumis aux vicissitudes de la vie politique française vont durer trente ans. L’opéra de Garnier est l’œuvre de toute une vie. Il est l’occasion pour l’architecte d’affirmer que l’édifice doit être une œuvre commune qui associe tous les arts. Pour édifier le temple de l’art lyrique, Garnier veut y conjuguer les disciplines qui entrent dans la désignation générique de « beaux-arts » : l’architecture, la peinture et la sculpture auxquelles il adjoint les arts décoratifs. À la condition cependant que tous ces arts plastiques frères de l’architecture acceptent d’être entièrement subordonnés à cette dernière. Ainsi Garnier dessine tout, esquisse les moindres détails, supervise le travail des artistes, peintres et sculpteurs, qui œuvrent au décor.

Format : AVI
Format/Info : Audio Video Interleave
File size : 207 MiB
Duration : 28mn 27s
Overall bit rate : 1 017 Kbps
Writing application : VirtualDubMod 1.5.10.3 Fr | www.virtualdub-fr.org || (build 2550/release)
Writing library : VirtualDubMod build 2550/release

Video
ID : 0
Format : MPEG-4 Visual
Format profile : Advanced Simple@L5
Format settings, BVOP : 2
Format settings, QPel : No
Format settings, GMC : No warppoints
Format settings, Matrix : Default (MPEG)
Muxing mode : Packed bitstream
Codec ID : XVID
Codec ID/Hint : XviD
Duration : 28mn 27s
Bit rate : 895 Kbps
Width : 640 pixels
Height : 368 pixels
Display aspect ratio : 16:9
Frame rate : 25.000 fps
Color space : YUV
Chroma subsampling : 4:2:0
Bit depth : 8 bits
Scan type : Progressive
Compression mode : Lossy
Bits/(Pixel*Frame) : 0.152
Stream size : 182 MiB (88%)
Writing library : XviD 57

Audio
ID : 1
Format : MPEG Audio
Format version : Version 1
Format profile : Layer 3
Mode : Joint stereo
Mode extension : MS Stereo
Codec ID : 55
Codec ID/Hint : MP3
Duration : 28mn 27s
Bit rate mode : Constant
Bit rate : 112 Kbps
Channel(s) : 2 channels
Sampling rate : 48.0 KHz
Compression mode : Lossy
Stream size : 22.8 MiB (11%)
Alignment : Aligned on interleaves
Interleave, duration : 40 ms (1.00 video frame)
Interleave, preload duration : 504 ms
Writing library : LAME3.98r
Encoding settings : -m j -V 4 -q 3 -lowpass 15.6 -b 112


(Arte) Architectures : L'Opéra Garnier (2011)

(Arte) Architectures : L'Opéra Garnier (2011)

(Arte) Architectures : L'Opéra Garnier (2011)

~ Liens interchangeables ~



No Pass ;)

Un merci ?

D'autres "Architectures" ? >> Listing des documentaires