(Arte) Ariane Mnouchkine, l'aventure du théâtre du soleil (2009)

Posted By: Morocco
(Arte) Ariane Mnouchkine, l'aventure du théâtre du soleil (2009)

(Arte) Ariane Mnouchkine, l'aventure du théâtre du soleil (2009)
TNT-Rip by Clo2 | French | 1h14min | 640 x 368 | 25.000 fps | Avi | MPEG-4 XviD @ 895 Kbps | MP3 @ 112 Kbps | 541 MB
Genre : Documentaire

De la Cartoucherie de Vincennes à New York en passant par Kaboul, la vie au quotidien et en tournée de la troupe du Soleil et de son ardente directrice. Une passionnante biographie théâtrale et intime.

À travers des scènes de répétition et des extraits de spectacles, des témoignages d'amis et de collaborateurs, des documents inédits sur la naissance du Théâtre du Soleil en 1964 et des images de tournées à l'étranger, Ariane Mnouchkine évoque son enfance, sa conception du théâtre, sa rencontre avec le public, son engagement politique. Depuis plus de quatre décennies, cette femme d'exception a su maintenir la cohésion d'une compagnie qui, par son travail, entend "ré-enchanter le monde".

Format : AVI
Format/Info : Audio Video Interleave
File size : 541 MiB
Duration : 1h 14mn
Overall bit rate : 1 017 Kbps
Writing application : VirtualDubMod 1.5.10.3 Fr | www.virtualdub-fr.org || (build 2550/release)
Writing library : VirtualDubMod build 2550/release

Video
ID : 0
Format : MPEG-4 Visual
Format profile : Advanced Simple@L5
Format settings, BVOP : 2
Format settings, QPel : No
Format settings, GMC : No warppoints
Format settings, Matrix : Default (H.263)
Muxing mode : Packed bitstream
Codec ID : XVID
Codec ID/Hint : XviD
Duration : 1h 14mn
Bit rate : 895 Kbps
Width : 640 pixels
Height : 368 pixels
Display aspect ratio : 1.739
Frame rate : 25.000 fps
Color space : YUV
Chroma subsampling : 4:2:0
Bit depth : 8 bits
Scan type : Progressive
Compression mode : Lossy
Bits/(Pixel*Frame) : 0.152
Stream size : 476 MiB (88%)
Writing library : XviD 1.2.1 (UTC 2008-12-04)

Audio
ID : 1
Format : MPEG Audio
Format version : Version 1
Format profile : Layer 3
Mode : Joint stereo
Mode extension : MS Stereo
Codec ID : 55
Codec ID/Hint : MP3
Duration : 1h 14mn
Bit rate mode : Constant
Bit rate : 112 Kbps
Channel(s) : 2 channels
Sampling rate : 48.0 KHz
Compression mode : Lossy
Stream size : 59.5 MiB (11%)
Alignment : Aligned on interleaves
Interleave, duration : 40 ms (1.00 video frame)
Interleave, preload duration : 504 ms


(Arte) Ariane Mnouchkine, l'aventure du théâtre du soleil (2009)

(Arte) Ariane Mnouchkine, l'aventure du théâtre du soleil (2009)

(Arte) Ariane Mnouchkine, l'aventure du théâtre du soleil (2009)

(Arte) Ariane Mnouchkine, l'aventure du théâtre du soleil (2009)

(Arte) Ariane Mnouchkine, l'aventure du théâtre du soleil (2009)

No Pass ;)

Un merci ?