Batman Beyond - The Complete First Season (1999)

Posted By: Mendose
Batman Beyond - The Complete First Season (1999)

Batman Beyond - The Complete First Season (1999)
DVDRip | AVI | 640x480 4:3 | XviD ~1300 Kbps 23.976 fps | MP3 192 Kbps 48.0 KHz (2 CH)
Language: English | Subtitle: none | Runtime: ~22 min per episode | 2.96 GB
Genre: Animation | Action | Adventure


Batman Beyond, also known as Batman of the Future, is an American animated television series created by Warner Bros. Animation in collaboration with DC Comics as a continuation of the Batman legacy. Depicting the teenager Terry McGinnis as a new Batman in a futuristic Gotham City under the tutelage of an elderly Bruce Wayne, the series began airing on January 10, 1999, and ended its run on December 18, 2001.


General
Format : AVI
Format/Info : Audio Video Interleave
File size : 233 MiB
Duration : 22mn 0s
Overall bit rate : 1 480 Kbps
Writing application : VirtualDubMod 1.5.4.1 (build 2178/release)
Writing library : VirtualDubMod build 2178/release

Video
ID : 0
Format : MPEG-4 Visual
Format profile : Simple@L3
Format settings, BVOP : 1
Format settings, QPel : No
Format settings, GMC : No warppoints
Format settings, Matrix : Custom
Codec ID : XVID
Codec ID/Hint : XviD
Duration : 22mn 0s
Bit rate : 1 281 Kbps
Width : 640 pixels
Height : 480 pixels
Display aspect ratio : 4:3
Frame rate : 23.976 fps
Color space : YUV
Chroma subsampling : 4:2:0
Bit depth : 8 bits
Scan type : Progressive
Compression mode : Lossy
Bits/(Pixel*Frame) : 0.174
Stream size : 202 MiB (87%)
Writing library : XviD 1.1.0 Beta2 (UTC 2005-04-04)

Audio
ID : 1
Format : MPEG Audio
Format version : Version 1
Format profile : Layer 3
Mode : Joint stereo
Mode extension : MS Stereo
Codec ID : 55
Codec ID/Hint : MP3
Duration : 22mn 0s
Bit rate mode : Constant
Bit rate : 192 Kbps
Channel(s) : 2 channels
Sampling rate : 48.0 KHz
Compression mode : Lossy
Stream size : 30.2 MiB (13%)
Alignment : Aligned on interleaves
Interleave, duration : 83 ms (2.00 video frames)
Interleave, preload duration : 504 ms
Writing library : LAME3.97
Encoding settings : -m j -V 4 -q 2 -lowpass 18.6 -b 192


Screenshots:

Batman Beyond - The Complete First Season (1999)

Batman Beyond - The Complete First Season (1999)

Batman Beyond - The Complete First Season (1999)

Batman Beyond - The Complete First Season (1999)

Batman Beyond - The Complete First Season (1999)


Easy-share:
http://www.easy-share.com/1917220987/Season 1, Episode 01 - Rebirth (Part 1).avi.rar
http://www.easy-share.com/1917220989/Season 1, Episode 02 - Rebirth (Part 2).avi.rar
http://www.easy-share.com/1917220993/Season 1, Episode 03 - Black Out.avi.rar
http://www.easy-share.com/1917220998/Season 1, Episode 04 - Golem.avi.rar
http://www.easy-share.com/1917221002/Season 1, Episode 05 - Meltdown.avi.rar
http://www.easy-share.com/1917221005/Season 1, Episode 06 - Heroes.avi.rar
http://www.easy-share.com/1917221008/Season 1, Episode 07 - Shriek.avi.rar
http://www.easy-share.com/1917221010/Season 1, Episode 08 - Dead Man's Hand.avi.rar
http://www.easy-share.com/1917221013/Season 1, Episode 09 - The Winning Edge.avi.rar
http://www.easy-share.com/1917221015/Season 1, Episode 10 - Spellbound.avi.rar
http://www.easy-share.com/1917221020/Season 1, Episode 11 - Disappearing Inque.avi.rar
http://www.easy-share.com/1917221024/Season 1, Episode 12 - A Touch of Curaré.avi.rar
http://www.easy-share.com/1917221027/Season 1, Episode 13 - Ascension.avi.rar

Filesonic:
http://www.filesonic.com/file/1637057454/01.Rebirth.Part.1.avi.rar
http://www.filesonic.com/file/1637074084/02.Rebirth.Part.2.avi.rar
http://www.filesonic.com/file/1637063974/03.Black.Out.avi.rar
http://www.filesonic.com/file/1637009434/04.Golem.avi.rar
http://www.filesonic.com/file/1637052474/05.Meltdown.avi.rar
http://www.filesonic.com/file/1637208234/06.Heroes.avi.rar
http://www.filesonic.com/file/1637032524/07.Shriek.avi.rar
http://www.filesonic.com/file/1637068844/08.Dead.Mans.Hand.avi.rar
http://www.filesonic.com/file/1637005324/09.The.Winning.Edge.avi.rar
http://www.filesonic.com/file/1637005364/10.Spellbound.avi.rar
http://www.filesonic.com/file/1637056124/11.Disappearing.Inque.avi.rar
http://www.filesonic.com/file/1637073914/12.A.Touch.of.Curar.avi.rar
http://www.filesonic.com/file/1637068784/13.Ascension.avi.rar


[ MY BLOG ] | [ RSS Channel ]