(Arte) Clowns (2013)

Posted By: Morocco
(Arte) Clowns (2013)

(Arte) Clowns (2013)
TNT-Rip by Clo2 | French | 25min | 720 x 400 | 25.000 fps | MP4 | AVC High@L3.1 @ 901 Kbps | MPEG Audio @ 106 Kbps | 184 MB
Genre : Documentaire

Présenté par Calixte de Nigremont, un montage d’archives des plus beaux numéros de clowns présentés dans les grands festivals de cirque : Festival de Monte Carlo, Festival du cirque de demain…

Format : MPEG-4
Format profile : Base Media / Version 2
Codec ID : mp42
File size : 184 MiB
Duration : 25mn 23s
Overall bit rate mode : Variable
Overall bit rate : 1 012 Kbps
Encoded date : UTC 2013-01-11 16:29:20
Tagged date : UTC 2013-01-11 16:29:22

Video
ID : 1
Format : AVC
Format/Info : Advanced Video Codec
Format profile : High@L3.1
Format settings, CABAC : Yes
Format settings, ReFrames : 4 frames
Codec ID : avc1
Codec ID/Info : Advanced Video Coding
Duration : 25mn 23s
Bit rate mode : Variable
Bit rate : 901 Kbps
Width : 720 pixels
Height : 400 pixels
Display aspect ratio : 16:9
Frame rate mode : Variable
Frame rate : 25.000 fps
Minimum frame rate : 24.718 fps
Maximum frame rate : 100.000 fps
Color space : YUV
Chroma subsampling : 4:2:0
Bit depth : 8 bits
Scan type : Progressive
Bits/(Pixel*Frame) : 0.125
Stream size : 164 MiB (89%)
Encoded date : UTC 2013-01-11 16:29:20
Tagged date : UTC 2013-01-11 16:29:22

Audio
ID : 2
Format : MPEG Audio
Format version : Version 1
Format profile : Layer 3
Mode : Joint stereo
Mode extension : MS Stereo
Codec ID : 69
Duration : 25mn 23s
Bit rate mode : Variable
Bit rate : 106 Kbps
Channel(s) : 2 channels
Sampling rate : 48.0 KHz
Compression mode : Lossy
Stream size : 19.2 MiB (10%)
Encoded date : UTC 2013-01-11 16:29:20
Tagged date : UTC 2013-01-11 16:29:22


(Arte) Clowns (2013)

(Arte) Clowns (2013)

(Arte) Clowns (2013)

(Arte) Clowns (2013)

No Pass ;)

Un merci ?