(Arte) Couleurs et contrastes - Sonia et Robert Delaunay (2013)

Posted By: Morocco
(Arte) Couleurs et contrastes - Sonia et Robert Delaunay (2013)

(Arte) Couleurs et contrastes - Sonia et Robert Delaunay (2013)
TNT-Rip by Clo2 | French | 26min | 720 x 400 | 25.000 fps | MP4 | AVC High@L4.0 @ 898 Kbps | MPEG Audio @ 102 Kbps | 187 MB
Genre : Documentaire

Robert Delaunay rencontra en 1907 la jeune Russe Sonia Uhde-Terk. Les deux artistes mettront bientôt la couleur au premier plan de leurs recherches, mais sans se copier l’un l’autre. Sonia sera l’une des pionnières du design, en créant des tissus, des meubles et des vêtements. Robert sera célèbre pour ses séries “Fenêtres” et “Disques”, avant de réaliser deux pavillons pour l’Exposition universelle de Paris en 1937.

Format : MPEG-4
Format profile : Base Media / Version 2
Codec ID : mp42
File size : 187 MiB
Duration : 26mn 3s
Overall bit rate mode : Variable
Overall bit rate : 1 006 Kbps
Encoded date : UTC 2013-01-27 11:49:47
Tagged date : UTC 2013-01-27 11:49:49

Video
ID : 1
Format : AVC
Format/Info : Advanced Video Codec
Format profile : High@L4.0
Format settings, CABAC : Yes
Format settings, ReFrames : 4 frames
Codec ID : avc1
Codec ID/Info : Advanced Video Coding
Duration : 26mn 3s
Bit rate mode : Variable
Bit rate : 898 Kbps
Width : 720 pixels
Height : 400 pixels
Display aspect ratio : 16:9
Frame rate mode : Variable
Frame rate : 25.000 fps
Minimum frame rate : 24.718 fps
Maximum frame rate : 25.203 fps
Color space : YUV
Chroma subsampling : 4:2:0
Bit depth : 8 bits
Scan type : Progressive
Bits/(Pixel*Frame) : 0.125
Stream size : 167 MiB (89%)
Encoded date : UTC 2013-01-27 11:49:47
Tagged date : UTC 2013-01-27 11:49:49

Audio
ID : 2
Format : MPEG Audio
Format version : Version 1
Format profile : Layer 3
Mode : Joint stereo
Codec ID : 69
Duration : 26mn 3s
Bit rate mode : Variable
Bit rate : 102 Kbps
Channel(s) : 2 channels
Sampling rate : 48.0 KHz
Compression mode : Lossy
Stream size : 19.1 MiB (10%)
Encoded date : UTC 2013-01-27 11:49:47
Tagged date : UTC 2013-01-27 11:49:49


(Arte) Couleurs et contrastes - Sonia et Robert Delaunay (2013)

(Arte) Couleurs et contrastes - Sonia et Robert Delaunay (2013)

(Arte) Couleurs et contrastes - Sonia et Robert Delaunay (2013)

(Arte) Couleurs et contrastes - Sonia et Robert Delaunay (2013)

(Arte) Couleurs et contrastes - Sonia et Robert Delaunay (2013)

No Pass ;)

Un merci ?
~ Lien ~

Uploaded
ou
Uptobox