Tags
Language
Tags

Dante's Inferno (1967)

Posted By: Tutorial
1080p (FullHD) / BluRay IMDb
Dante's Inferno (1967)

Dante's Inferno (1967)
1080p BluRay | 1440 x 1080 | .MKV/AVC @ 8293 Kbps | 1h 27mn | English AC-3 640 kbps, 1 channel | 5.46 GB
BRRip | 534 x 400 | .AVI/XviD @ 1597 Kbps | 1h 27mn | English MP3 192 Kbps, 1 channel | 1.10 GBB
Genre: Documentary, Biography

A movie about jealousy, and the complex and painful relationship between Rossetti and his sickly wife, Elizabeth.
They are members of the upper-crust layer of society, bourgeois painters, poets and philosophers. Rossetti struggles with his own emotions for his wife, as she refuses his sexual advances before they marry, and, once they do marry, she is unable to bear him any children. She believes he has impregnated another woman (a model), commits suicide, and, as he chooses to bury his best poems with her coffin, he is driven insane when confronted with the idea of exhuming her coffin and retrieving the book to sell to his fans.

General
Unique ID : 173539681220435969225893011311209078300 (0x828E86E04F2160DA851E6F0E5E89DE1C)
Complete name : dantes.inferno.1967.1080p.mkv
Format : Matroska
Format version : Version 4 / Version 2
File size : 5.46 GiB
Duration : 1h 27mn
Overall bit rate : 8 933 Kbps
Encoded date : UTC 2016-04-12 17:38:07
Writing application : mkvmerge v9.0.1 ('Obstacles') 32bit
Writing library : libebml v1.3.3 + libmatroska v1.4.4

Video
ID : 1
Format : AVC
Format/Info : Advanced Video Codec
Format profile : High@L4.1
Format settings, CABAC : Yes
Format settings, ReFrames : 4 frames
Codec ID : V_MPEG4/ISO/AVC
Duration : 1h 27mn
Bit rate : 8 293 Kbps
Width : 1 440 pixels
Height : 1 080 pixels
Display aspect ratio : 4:3
Frame rate : 25.000 fps
Color space : YUV
Chroma subsampling : 4:2:0
Bit depth : 8 bits
Scan type : Progressive
Bits/(Pixel*Frame) : 0.213
Stream size : 4.96 GiB (91%)
Writing library : x264 core 148 r2665 a01e339
Encoding settings : cabac=1 / ref=4 / deblock=1:-1:-1 / analyse=0x3:0x133 / me=umh / subme=7 / psy=1 / psy_rd=1.00:0.00 / mixed_ref=1 / me_range=16 / chroma_me=1 / trellis=1 / 8x8dct=1 / cqm=0 / deadzone=21,11 / fast_pskip=0 / chroma_qp_offset=-2 / threads=6 / lookahead_threads=1 / sliced_threads=0 / nr=0 / decimate=1 / interlaced=0 / bluray_compat=0 / constrained_intra=0 / bframes=3 / b_pyramid=2 / b_adapt=2 / b_bias=0 / direct=3 / weightb=1 / open_gop=0 / weightp=2 / keyint=250 / keyint_min=25 / scenecut=40 / intra_refresh=0 / rc_lookahead=50 / rc=2pass / mbtree=1 / bitrate=8293 / ratetol=1.0 / qcomp=0.60 / qpmin=10 / qpmax=51 / qpstep=4 / cplxblur=20.0 / qblur=0.5 / vbv_maxrate=62500 / vbv_bufsize=78125 / nal_hrd=none / filler=0 / ip_ratio=1.40 / aq=1:1.00
Default : Yes
Forced : No

Audio
ID : 2
Format : AC-3
Format/Info : Audio Coding 3
Mode extension : CM (complete main)
Codec ID : A_AC3
Duration : 1h 27mn
Bit rate mode : Constant
Bit rate : 640 Kbps
Channel(s) : 1 channel
Channel positions : Front: C
Sampling rate : 48.0 KHz
Bit depth : 16 bits
Compression mode : Lossy
Stream size : 401 MiB (7%)
Language : English
Default : Yes
Forced : No

Menu
00:00:00.000 : en:00:00:00.000
00:13:08.920 : en:00:13:08.920
00:21:10.280 : en:00:21:10.280
00:32:24.800 : en:00:32:24.800
00:43:40.040 : en:00:43:40.040
00:54:08.360 : en:00:54:08.360
01:03:32.080 : en:01:03:32.080
01:14:23.800 : en:01:14:23.800

General
Complete name : Dantes.Inferno.1967.BRRip.avi
Format : AVI
Format/Info : Audio Video Interleave
Format profile : OpenDML
File size : 1.10 GiB
Duration : 1 h 27 min
Overall bit rate : 1 805 kb/s
Movie name : RARBG - Dantes.Inferno.1967.BRRip.XviD.MP3-XVID
Writing application : Lavf58.20.100
Comment : RARBG - Dantes.Inferno.1967.BRRip.XviD.MP3-XVID

Video
ID : 0
Format : MPEG-4 Visual
Format profile : Simple@L5
Format settings, BVOP : No
Format settings, QPel : No
Format settings, GMC : No warppoints
Format settings, Matrix : Default (H.263)
Codec ID : XVID
Codec ID/Hint : XviD
Duration : 1 h 27 min
Bit rate : 1 597 kb/s
Width : 534 pixels
Height : 400 pixels
Display aspect ratio : 4:3
Original display aspect ratio : 4:3
Frame rate : 25.000 FPS
Color space : YUV
Chroma subsampling : 4:2:0
Bit depth : 8 bits
Scan type : Progressive
Compression mode : Lossy
Bits/(Pixel*Frame) : 0.299
Stream size : 1 000 MiB (88%)
Title : RARBG - Dantes.Inferno.1967.BRRip.XviD.MP3-XVID
Writing library : Lavc58.35.100

Audio
ID : 1
Format : MPEG Audio
Format version : Version 1
Format profile : Layer 3
Codec ID : 55
Codec ID/Hint : MP3
Duration : 1 h 27 min
Bit rate mode : Constant
Bit rate : 192 kb/s
Channel(s) : 1 channel
Sampling rate : 48.0 kHz
Compression mode : Lossy
Stream size : 120 MiB (11%)
Alignment : Aligned on interleaves
Interleave, duration : 24 ms (0.60 video frame)
Interleave, preload duration : 24 ms
Title : RARBG - Dantes.Inferno.1967.BRRip.XviD.MP3-XVID
Writing library : LAME3.99.5
1080p BluRay Screenshots

Dante's Inferno (1967)

Dante's Inferno (1967)

Dante's Inferno (1967)

BRRip Screenshots

Dante's Inferno (1967)

Dante's Inferno (1967)

Dante's Inferno (1967)


Dante's Inferno (1967)