Die Schulden / The Debt / החוב

Posted By: TimMa
Die Schulden / The Debt / החוב

Die Schulden / The Debt / החוב
2007 | German | DVD-Rip | AVI | 640x480 | XviD 494 Kbps 25.000 fps | MP3 192 Kbps | Lenght: 01:32:00 | 451.69 Mb
Genre: Thriller, Drama | Label: Avnston Films Ltd. | Country: Israel | Subtitles: Hebrew (included), Russian (a separate srt file)

Many years ago, Rachel Berner was an agent of Mossad. Now she's known writer, leading a successful living and getting ready to retire. But suddenly it is rich in life-threatening adventures past invades her measured life. Peak career Raquel came in the mid-60's, when she, along with two other agents, Zvi and Ehud, hunt for one of the most dangerous Nazi war criminals, known surgeon…

בשנת 1965 הייתה רחל ברנר אחת משלושה חברי מוסד צעירים שתפסו את "המנתח מטרבלינקה", פושע מלחמה נאצי מפלצתי. אולם "המנתח" מעולם לא הועמד למשפט בישראל. הסיבה הרשמית- הוא התאבד בשבי חוטפיו. אבל ב-1995, שלושים שנה אחרי "חיסולו", "המנתח" מופיע לפתע, נחוש להתוודות על פשעיו. עכשיו, אותם שלושת חברי מוסד, שלמעשה פיברקו את מותו כדי להסתיר את בריחתו מידיהם, חייבים להשתיקו לפני שהשקר ייחשף. משימת החיסול נופלת על רחל בת השישים, שבמשך הזמן עטפה את עצמה בזוהר המבצע המהולל שלא היה. כעת, ניצבת מול החוב כנגדו בנתה את חייה, נאלצת אשת החברה המבוגרת והמכובדת להפוך למחסלת קרת רוח. "החוב" הוא מותחן ריגול פסיכולוגי שעלילתו נעה על שני צירי זמן. הציר המרכזי, ציר ההווה, מתרחש בשנת 1995 כשרחל, סוכנת מוסד לשעבר, בת שישים, יוצאת לחסל את "המנתח מטרבלינקה", פושע נאצי בן שמונים. כך, הרחק מעיניהם של ארגוני ריגול וממשלות, ניטש קרב עתיק בין עולמות נשכחים. הציר המשני, ציר העבר, מתרחש בשנת 1965 ובו אנחנו רואים את רחל וחבריה, סוכני המוסד הצעירים, כש"המנתח" מטרבלינקה חומק מידיהם ובתגובה הם מפברקים את מותו. במהלך ציר ההווה, כשהדמויות יוצאות לסגור את החוב הפרטי ביניהם, נחשף בפנינו בשלבים ציר העבר שמעיר לחיים שנאות ותיקות, פחדים מודחקים ושקרים ישנים. בעולם שבו מאחורי כל אמת מסתתר שקר ומאחורי כל שקר מסתתרים אנשים, מתייצבים ב"החוב" זה מול זו, פושע נאצי מפלצתי וסוכנת מוסד, לקרב אחרון בין טוב ורע. זהו קרב בין סוכנת בשליחות עצמית ונאצי הידוע כמת, קרב שאיש לא יודע ולא ידע ממנו, בין שני בני אדם שיש ביניהם חוב ישן, הגדול משניהם גם יחד.

Много лет назад, Рэйчел Бернер была агентом Моссада. Теперь она известный писатель, ведущая успешный образ жизни и готовится уйти в отставку. Но вдруг опасные для жизни приключения вторгаются в ее размеренную жизнь. Пик карьеры Ракель пришел в середине-60, когда она, вместе с двумя другими агентами, Цви и Эхуда, охотилась за одним из самых опасных нацистских преступников, известным хирургом…
Die Schulden / The Debt / החוב

General
Complete name : F:\!!!UPLOAD\2_Full_No_Links\_UpLoad_Filesonic\Dolg.Ha-hov.(2007)\Dolg.Ha-hov.(2007).Avi
Format : AVI
Format/Info : Audio Video Interleave
File size : 462 MiB
Duration : 1h 32mn
Overall bit rate : 696 Kbps

Video
ID : 0
Format : MPEG-4 Visual
Format profile : Advanced Simple@L5
Format settings, BVOP : Yes
Format settings, QPel : No
Format settings, GMC : No warppoints
Format settings, Matrix : Default (H.263)
Muxing mode : Packed bitstream
Codec ID : XVID
Codec ID/Hint : XviD
Duration : 1h 32mn
Bit rate : 494 Kbps
Width : 640 pixels
Height : 480 pixels
Display aspect ratio : 4:3
Frame rate : 25.000 fps
Color space : YUV
Chroma subsampling : 4:2:0
Bit depth : 8 bits
Scan type : Progressive
Compression mode : Lossy
Bits/(Pixel*Frame) : 0.064
Stream size : 328 MiB (71%)
Writing library : XviD 1.1.2 (UTC 2006-11-01)

Audio
ID : 1
Format : MPEG Audio
Format version : Version 1
Format profile : Layer 3
Codec ID : 55
Codec ID/Hint : MP3
Duration : 1h 32mn
Bit rate mode : Constant
Bit rate : 192 Kbps
Channel(s) : 2 channels
Sampling rate : 44.1 KHz
Compression mode : Lossy
Delay relative to video : 26ms
Stream size : 128 MiB (28%)
Alignment : Split accross interleaves
Interleave, duration : 40 ms (1.00 video frame)
Title : Audio Stream

Die Schulden / The Debt / החוב