Noam Chomsky: Distorted Morality (2003)

Posted By: Tutorial
Noam Chomsky: Distorted Morality (2003)

Noam Chomsky: Distorted Morality (2003)
DVDRip | 720 x 540 | .AVI/XVID @ 1951 Kbps | 55mn 9s | English MP3 192 kbps, 2 channels | 851 MB
Genre: Documentary

The noted scholar, political and social analyst Noam Chomsky presents his critique of America's "War on Terror" with his support for the fact that such a "War" cannot exist..
Director: John Junkerman
Star: Noam Chomsky
More info: IMDB

General
Complete name : Distorted.Morality.2003.avi
Format : AVI
Format/Info : Audio Video Interleave
File size : 851 MiB
Duration : 55mn 9s
Overall bit rate : 2 157 Kbps
Writing application : MEncoder version Beta 4.4.5 building on 20110111


Video
ID : 0
Format : MPEG-4 Visual
Format profile : Advanced Simple@L5
Format settings, BVOP : 2
Format settings, QPel : No
Format settings, GMC : No warppoints
Format settings, Matrix : Default (MPEG)
Codec ID : XVID
Codec ID/Hint : XviD
Duration : 55mn 9s
Bit rate : 1 951 Kbps
Width : 720 pixels
Height : 540 pixels
Display aspect ratio : 4:3
Frame rate : 29.970 fps
Color space : YUV
Chroma subsampling : 4:2:0
Bit depth : 8 bits
Scan type : Progressive
Compression mode : Lossy
Bits/(Pixel*Frame) : 0.167
Stream size : 770 MiB (90%)
Writing library : XviD 1.2.1 (UTC 2008-12-04)

Audio
ID : 1
Format : MPEG Audio
Format version : Version 1
Format profile : Layer 3
Codec ID : 55
Codec ID/Hint : MP3
Duration : 55mn 9s
Bit rate mode : Constant
Bit rate : 192 Kbps
Channel(s) : 2 channels
Sampling rate : 48.0 KHz
Compression mode : Lossy
Delay relative to video : 33ms
Stream size : 75.7 MiB (9%)
Alignment : Aligned on interleaves
Interleave, duration : 24 ms (0.72 video frame)
Interleave, preload duration : 504 ms
Writing library : LAME3.98.4
Screenshots

Noam Chomsky: Distorted Morality (2003)

Noam Chomsky: Distorted Morality (2003)

Noam Chomsky: Distorted Morality (2003)


Noam Chomsky: Distorted Morality (2003)