Mission Impossible (1996)

Posted By: edi1967
2160p (4k UHD) / BluRay Remux IMDb
Mission Impossible (1996)

Mission Impossible (1996)
A Film Brian De Palma
4K UHD Remux | MKV | Video #1 3840x2160 | HEVC @ 56 Mb/s
Video #2 1920x1080 | HEVC @ 6342 kbps | 01:50:33 | 5% Recovery | 52.0 GB
Audio: English DTS TrueHD @ 3365 Kbps (6 ch); English, Italian (dubbed) AC3 @ 640 Kbps (6 ch)
Subtitles: English, Italian
Genre: Thriller, Action, Adventure

Based on the hit T.V. series. Jim Phelps was sent to Prague for a mission to prevent the theft of classified material. His wife Claire and his trusted partner Ethan Hunt were members of Phelps' team. Unfortunately, something went horribly wrong and the mission failed, leaving Ethan Hunt the lone survivor. After he reported the failed mission, Kettridge the head of the agency suspects Ethan of being the culprit for the failed mission. Now, Ethan uses unorthodox methods (Which includes the aid of an arms dealer going by the name "Max") to try to find who set him up and to clear his name.

Trama
Una ex spia russa sta vendendo informazioni segretissime al mercato nero internazionale, via Internet. Il gruppo specializzato in missioni impossibili, comandato da Jim Phelps, deve smascherare la talpa e recuperare una lista con i nomi dei più importanti agenti segreti del mondo. Ma durante la missione, a Praga, qualcosa va storto: Ethan Hunt (Cruise) e Claire (Béart) sono gli unici superstiti del nucleo speciale. Hunt dovrà scoprire cosa sia successo veramente e perché i servizi segreti americani ora lo accusino di essere la talpa, e nel frattempo impadronirsi della lista con l'aiuto di qualcun altro. In "Mission Impossible" non ci sono soltanto grande azione e divertimento. C'è la mano di un regista maestro di stile e di tecnica: che qui si prende una vacanza dai suoi temi più oscuri e lo fa - dichiaratamente - per motivi di guadagno oltreche di svago; ma senza assolutamente rinunciare al suo straordinario controllo della messa in scena e della tensione. La serie televisiva è stata spettacolarizzata senza stravolgerne lo spirito, con almeno tre sequenze da manuale: quella iniziale a Praga, quella all'interno della sede della Cia e quella finale del corpo a corpo sul treno in corsa.

Titolo originale: Mission: Impossible
Nazione: USA
Anno: 1996
Genere: Azione
Durata: 100
Regia: Brian De Palma
Cast: Tom Cruise, Jon Voight, Emmanuelle Béart, Henry Czerny, Jean Reno, Ving Rhames, Kristin Scott Thomas, Vanessa Redgrave, Dale Dye, Ion Caramitru, Ingeborge

General
Unique ID : 323232333333331121265656565656(0x26D67FAEF4BB260889781CA289E86B51B)
Complete name : F:\4KK\Mission Impossible\Mission Impossible (1996) UHD 4K 2160p Video Untouched ITA AC3 ENG TrueHD+AC3 Subs.mkv
Format : Matroska
Format version : Version 4 / Version 2
File size : 52.0 GiB
Duration : 1 h 50 min
Overall bit rate mode : Variable
Overall bit rate : 67.6 Mb/s
Encoded date : UTC 2018-07-07 09:51:54
Writing application : mkvmerge v23.0.0 ('The Bride Said No') 64-bit
Writing library : libebml v1.3.6 + libmatroska v1.4.9

Video #1
ID : 1
Format : HEVC
Format/Info : High Efficiency Video Coding
Commercial name : HDR10
Format profile : Main 10@L5.1@High
Codec ID : V_MPEGH/ISO/HEVC
Duration : 1 h 50 min
Bit rate : 56.5 Mb/s
Width : 3 840 pixels
Height : 2 160 pixels
Display aspect ratio : 16:9
Frame rate mode : Constant
Frame rate : 23.976 (24000/1001) FPS
Color space : YUV
Chroma subsampling : 4:2:0 (Type 2)
Bit depth : 10 bits
Bits/(Pixel*Frame) : 0.284
Stream size : 43.5 GiB (84%)
Language : English
Default : Yes
Forced : No
Color range : Limited
Color primaries : BT.2020
Transfer characteristics : PQ
Matrix coefficients : BT.2020 non-constant
Mastering display color pri : BT.709
Mastering display luminance : min: 0.0001 cd/m2, max: 1000 cd/m2

Video #2
ID : 2
Format : HEVC
Format/Info : High Efficiency Video Coding
Commercial name : HDR10
Format profile : Main 10@L5.1@High
Codec ID : V_MPEGH/ISO/HEVC
Duration : 1 h 50 min
Bit rate : 6 342 kb/s
Width : 1 920 pixels
Height : 1 080 pixels
Display aspect ratio : 16:9
Frame rate mode : Constant
Frame rate : 23.976 (24000/1001) FPS
Color space : YUV
Chroma subsampling : 4:2:0 (Type 2)
Bit depth : 10 bits
Bits/(Pixel*Frame) : 0.128
Stream size : 4.88 GiB (9%)
Language : English
Default : No
Forced : No
Color range : Limited
Color primaries : BT.2020
Transfer characteristics : PQ
Matrix coefficients : BT.2020 non-constant
Mastering display color pri : BT.709
Mastering display luminance : min: 0.0001 cd/m2, max: 1000 cd/m2

Audio #1
ID : 3
Format : AC-3
Format/Info : Audio Coding 3
Codec ID : A_AC3
Duration : 1 h 50 min
Bit rate mode : Constant
Bit rate : 640 kb/s
Channel(s) : 6 channels
Channel positions : Front: L C R, Side: L R, LFE
Sampling rate : 48.0 kHz
Frame rate : 31.250 FPS (1536 SPF)
Bit depth : 16 bits
Compression mode : Lossy
Stream size : 505 MiB (1%)
Title : AC3 5.1
Language : Italian
Service kind : Complete Main
Default : Yes
Forced : Yes

Audio #2
ID : 4
Format : TrueHD
Codec ID : A_TRUEHD
Duration : 1 h 50 min
Bit rate mode : Variable
Bit rate : 3 365 kb/s
Maximum bit rate : 4 890 kb/s
Channel(s) : 6 channels
Channel positions : Front: L C R, Side: L R, LFE
Sampling rate : 48.0 kHz
Frame rate : 1 200.000 FPS (40 SPF)
Compression mode : Lossless
Delay relative to video : -1 ms
Stream size : 2.59 GiB (5%)
Language : English
Default : No
Forced : No

Audio #3
ID : 5
Format : AC-3
Format/Info : Audio Coding 3
Codec ID : A_AC3
Duration : 1 h 50 min
Bit rate mode : Constant
Bit rate : 640 kb/s
Channel(s) : 6 channels
Channel positions : Front: L C R, Side: L R, LFE
Sampling rate : 48.0 kHz
Frame rate : 31.250 FPS (1536 SPF)
Bit depth : 16 bits
Compression mode : Lossy
Delay relative to video : -1 ms
Stream size : 505 MiB (1%)
Title : AC3 5.1
Language : English
Service kind : Complete Main
Default : No
Forced : No

Text #1
ID : 6
Format : UTF-8
Codec ID : S_TEXT/UTF8
Codec ID/Info : UTF-8 Plain Text
Bit rate : 0 b/s
Count of elements : 0
Stream size : 0.00 Byte (0%)
Title : Forced
Language : Italian
Default : Yes
Forced : No

Text #2
ID : 7
Format : UTF-8
Codec ID : S_TEXT/UTF8
Codec ID/Info : UTF-8 Plain Text
Duration : 1 h 49 min
Bit rate : 34 b/s
Count of elements : 661
Stream size : 27.9 KiB (0%)
Title : Regular
Language : Italian
Default : No
Forced : No

Text #3
ID : 8
Format : UTF-8
Codec ID : S_TEXT/UTF8
Codec ID/Info : UTF-8 Plain Text
Duration : 1 h 44 min
Bit rate : 41 b/s
Count of elements : 933
Stream size : 31.7 KiB (0%)
Title : Regular
Language : English
Default : No
Forced : No


Screenshot (click for Enlarge)
Mission Impossible (1996)
Mission Impossible (1996)
Mission Impossible (1996)


Per scaricare Altri FILM in ITALIANO CLICCA QUI


>>> Visit My Blog Here <<<
Subscribe to My Newsletter!
If you like this release please support Developer / Publisher and BUY it.
If you'll find that my links are dead please let me know through the Private Messages.
Please DO NOT MIRROR

Mission Impossible (1996)
Password: video