National Geographic - Generals at War: The Battle of Kursk (2009) [Repost]

Posted By: Tutorial
National Geographic - Generals at War: The Battle of Kursk (2009) [Repost]

National Geographic - Generals at War: The Battle of Kursk (2009)
HDTV | 1280 x 720 | .MKV/AVC @ 3271 Kbps | 47mn 22s | English AC-3 384 Kbps, 6 channels | 1.23 GB
Genre: Documentary, War, History

1943 – Germany and Russia clash near the Soviet city of Kursk, as each vies for control of the Eastern Front. The Germans are led by Field Marshal Erich von Manstein – an aristocratic master tactician. Facing him is the Red Army’s Marshal Zhukov – ruthless, opinionated and dangerous to know. Hitler is convinced new super-weapons like the Tiger tank will win the fight and insists von Manstein hold off his attack until more arrive. Zhukov exploits the delay and orders his men to dig for victory. They create an elaborate network of defences to grind the enemy down – or blow them up… The two armies finally meet in a titanic clash of tanks - the biggest tank battle of all time - which will change the course of the war.

Related Documentaries:
A&E Biography - Joseph Stalin: Red Terror (1996)
BBC - Surviving the Holocaust: Freddie Knoller's War (2015)
Hunting Hitler's Stolen Treasures: The Monuments Men (2014)
In Love with Adolf Hitler (2007)
History Channel - Hunting Hitler: Series 2 (2016)
Ben Building: Mussolini, Monuments and Modernism (2016)
BBC Storyville - Hitler, Stalin and Mr Jones (2012)
BBC - Hunting the Nazi Gold Train (2016)
National Geographic - Hitlers Suicide Ship (2010)
CH4 Time Team - Hitlers Island Fortress (2011)
HC Battle Stations - Hitlers Vengeance Weapons (2001)
PBS Nova - 3D Spies of WWII (2012)
Hitlers Museum - The Secret History of Art Theft during World War 2 (2008)
National Geographic - Nazi Megastructures: Season 2 (2014)
History Channel - WWII in HD (2009)
BBC - Secrets of World War II: The Enigma Secret (1998)
The Fatal Attraction of Adolf Hitler (1989)
Apocalypse: The Second World War (2009)

General
Unique ID : 171504306313016455203811174819021820419 (0x810687253CFB0AF080B31109DD359203)
Complete name : NG.Generals.at.War.The.Battle.of.Kursk.mkv
Format : Matroska
Format version : Version 2
File size : 1.23 GiB
Duration : 47mn 22s
Overall bit rate : 3 729 Kbps
Encoded date : UTC 2013-06-29 22:45:22
Writing application : mkvmerge v5.8.0 ('No Sleep / Pillow') built on Sep 2 2012 15:37:04
Writing library : libebml v1.2.3 + libmatroska v1.3.0

Video
ID : 1
Format : AVC
Format/Info : Advanced Video Codec
Format profile : High@L4.1
Format settings, CABAC : Yes
Format settings, ReFrames : 8 frames
Muxing mode : Header stripping
Codec ID : V_MPEG4/ISO/AVC
Duration : 47mn 22s
Bit rate : 3 271 Kbps
Width : 1 280 pixels
Height : 720 pixels
Display aspect ratio : 16:9
Frame rate : 29.970 fps
Color space : YUV
Chroma subsampling : 4:2:0
Bit depth : 8 bits
Scan type : Progressive
Bits/(Pixel*Frame) : 0.118
Stream size : 1.08 GiB (88%)
Writing library : x264 core 129 r2245 bc13772
Encoding settings : cabac=1 / ref=8 / deblock=1:-1:-1 / analyse=0x3:0x113 / me=esa / subme=8 / psy=1 / psy_rd=1.00:0.00 / mixed_ref=0 / me_range=30 / chroma_me=1 / trellis=2 / 8x8dct=1 / cqm=0 / deadzone=21,11 / fast_pskip=0 / chroma_qp_offset=-2 / threads=6 / lookahead_threads=1 / sliced_threads=0 / nr=0 / decimate=1 / interlaced=0 / bluray_compat=0 / constrained_intra=0 / bframes=5 / b_pyramid=0 / b_adapt=2 / b_bias=0 / direct=1 / weightb=1 / open_gop=0 / weightp=2 / keyint=300 / keyint_min=29 / scenecut=40 / intra_refresh=0 / rc_lookahead=40 / rc=crf / mbtree=1 / crf=20.0 / qcomp=0.60 / qpmin=10 / qpmax=51 / qpstep=4 / ip_ratio=1.40 / aq=1:1.05
Language : English
Default : Yes
Forced : No

Audio
ID : 2
Format : AC-3
Format/Info : Audio Coding 3
Mode extension : CM (complete main)
Muxing mode : Header stripping
Codec ID : A_AC3
Duration : 47mn 22s
Bit rate mode : Constant
Bit rate : 384 Kbps
Channel(s) : 6 channels
Channel positions : Front: L C R, Side: L R, LFE
Sampling rate : 48.0 KHz
Bit depth : 16 bits
Compression mode : Lossy
Stream size : 130 MiB (10%)
Default : Yes
Forced : No
Screenshots

National Geographic - Generals at War: The Battle of Kursk (2009) [Repost]

National Geographic - Generals at War: The Battle of Kursk (2009) [Repost]

National Geographic - Generals at War: The Battle of Kursk (2009) [Repost]

Welcome to my blog - daily update!

National Geographic - Generals at War: The Battle of Kursk (2009) [Repost]