Good Kill (2014)

Posted By: wcruiser
 Good Kill (2014)

Good Kill (2014)
BDRip | MKV | 720x406 | x264 @ 739 Kbps | English AAC (2 ch) @ 138 Kbps | 1h 42mn | 645.37 MB
720p BDRip | MKV | 1280x720 | x264 @ 4592 Kbps | English DTS (6 ch) @ 1509 Kbps | 1h 42mn | 4.37 GB
1080p BDRip | MKV | 1920x1080 | x264 @ 9173 Kbps | English DTS (6 ch) @ 1509 Kbps | 1h 42mn | 7.65 GB
Sub: None
Genre: Drama | Thriller

A Las Vegas-based fighter pilot turned drone pilot fights the Taliban by remote control for 12 hours a day, then goes home to the suburbs and feuds with his wife and kids for the other 12. But the pilot is starting to question the mission. Is he creating more terrorists than he's killing? Is he fighting a war without end.




About file

Name good.kill.2014.limited.bdrip.x264-usury.mkv
Date Fri, 26 Jun 2015 01:25:24 +0600
Size 676,714,409 bytes (645.365151 MiB)

Magic

File type data

Generic infos

Duration 01:42:34 (6153.972 s)
Container matroska
Production date Thu, 25 Jun 2015 22:26:20 +0600
Total tracks 2
Track nr. 1 video (V_MPEG4/ISO/AVC) {eng}
Track nr. 2 audio (A_AAC) {eng}
Muxing library libebml v1.3.1 + libmatroska v1.4.2
Writing application mkvmerge v7.7.0 ('Six Voices') 64bit built on Feb 28 2015 23:39:33

Relevant data

Resolution 720 x 406
Width multiple of 16
Height multiple of 2
Average DRF 19.436511
Standard deviation 3.995068
Std. dev. weighted mean 3.891584

Video track

Codec ID V_MPEG4/ISO/AVC
Resolution 720 x 406
Frame aspect ratio 360:203 = 1.773399 (~16:9)
Pixel aspect ratio 1:1 = 1
Display aspect ratio 360:203 = 1.773399 (~16:9)
Framerate 23.975986 fps
Stream size 568,528,174 bytes (542.190718 MiB)
Duration (bs) 01:42:34 (6153.865878 s)
Bitrate (bs) 739.084257 kbps
Qf 0.105453

Audio track

Codec ID A_AAC
Sampling frequency 48000 Hz
Channels 2
Stream size 106,484,059 bytes (101.551112 MiB)
Bitstream type (bs) AAC LC (Low Complexity)
Frames (bs) 288,467
Duration (bs) 01:42:34 (6153.962667 s)
Chunk-aligned (bs) Yes
Bitrate (bs) 138.426656 kbps VBR
Sampling frequency (bs) 48000 Hz
Mode (bs) 2: front-left, front-right

Video bitstream

Bitstream type MPEG-4 Part 10
User data x264 | core 146 r2538 121396c | H.264/MPEG-4 AVC codec
User data Copyleft 2003-2015 | http://www.videolan.org/x264.html | cabac=1
User data ref=5 | deblock=1:-2:-2 | analyse=0x3:0x113 | me=umh | subme=8
User data psy=1 | psy_rd=0.80:0.00 | mixed_ref=1 | me_range=16 | chroma_me=1
User data trellis=1 | 8x8dct=1 | cqm=0 | deadzone=21,11 | fast_pskip=1
User data chroma_qp_offset=-2 | threads=60 | lookahead_threads=3
User data sliced_threads=0 | nr=0 | decimate=1 | interlaced=0
User data bluray_compat=0 | constrained_intra=0 | bframes=3 | b_pyramid=2
User data b_adapt=2 | b_bias=0 | direct=3 | weightb=1 | open_gop=0 | weightp=2
User data keyint=250 | keyint_min=23 | scenecut=40 | intra_refresh=0
User data rc_lookahead=50 | rc=crf | mbtree=1 | crf=19.0 | qcomp=0.60
User data qpmin=0 | qpmax=69 | qpstep=4 | ip_ratio=1.40 | aq=1:1.00
SPS id 0
Profile High@L3.1
Num ref frames 5
Aspect ratio Square pixels
Chroma format YUV 4:2:0
PPS id 0 (SPS: 0)
Entropy coding type CABAC
Weighted prediction P slices - explicit weighted prediction
Weighted bipred idc B slices - implicit weighted prediction
8x8dct Yes
Total frames 147,545
Drop/delay frames 0
Corrupt frames 0

P-slices 39773 ( 26.957 %) #####
B-slices 106146 ( 71.941 %) ##############
I-slices 1626 ( 1.102 %)
SP-slices 0 ( 0.000 %)
SI-slices 0 ( 0.000 %)

DRF analysis

average DRF 19.436511
standard deviation 3.995068
max DRF 31

DRF<2 0 ( 0.000 %)
DRF=2 5 ( 0.003 %)
DRF=3 0 ( 0.000 %)
DRF=4 0 ( 0.000 %)
DRF=5 221 ( 0.150 %)
DRF=6 83 ( 0.056 %)
DRF=7 49 ( 0.033 %)
DRF=8 2984 ( 2.022 %)
DRF=9 3739 ( 2.534 %) #
DRF=10 156 ( 0.106 %)
DRF=11 223 ( 0.151 %)
DRF=12 283 ( 0.192 %)
DRF=13 470 ( 0.319 %)
DRF=14 874 ( 0.592 %)
DRF=15 2280 ( 1.545 %)
DRF=16 8574 ( 5.811 %) #
DRF=17 18946 ( 12.841 %) ###
DRF=18 25009 ( 16.950 %) ###
DRF=19 16972 ( 11.503 %) ##
DRF=20 13549 ( 9.183 %) ##
DRF=21 12025 ( 8.150 %) ##
DRF=22 9409 ( 6.377 %) #
DRF=23 8069 ( 5.469 %) #
DRF=24 7232 ( 4.902 %) #
DRF=25 6946 ( 4.708 %) #
DRF=26 4473 ( 3.032 %) #
DRF=27 3088 ( 2.093 %)
DRF=28 1341 ( 0.909 %)
DRF=29 454 ( 0.308 %)
DRF=30 87 ( 0.059 %)
DRF=31 4 ( 0.003 %)
DRF>31 0 ( 0.000 %)

P-slices average DRF 18.284515
P-slices std. deviation 3.468557
P-slices max DRF 30

B-slices average DRF 19.933233
B-slices std. deviation 4.066028
B-slices max DRF 31

I-slices average DRF 15.188807
I-slices std. deviation 2.851278
I-slices max DRF 26

Profile compliancy

Selected profile MTK PAL 6000
Resolution Ok
Framerate 23.975986 <> 25
Min buffer fill 81%

Edition entry

UID 15242576227059660938
Hidden No
Selected by default No
Playlist No
Chapters
00:00:00,000-00:07:17,687 00:00:00.000 {eng}
00:07:17,687-00:16:47,256 00:07:17.687 {eng}
00:16:47,256-00:25:27,901 00:16:47.256 {eng}
00:25:27,901-00:35:40,764 00:25:27.901 {eng}
00:35:40,764-00:44:26,080 00:35:40.764 {eng}
00:44:26,080-00:51:23,789 00:44:26.080 {eng}
00:51:23,789-01:00:38,218 00:51:23.789 {eng}
01:00:38,218-01:12:20,878 01:00:38.218 {eng}
01:12:20,878-01:18:34,043 01:12:20.878 {eng}
01:18:34,043-01:27:27,868 01:18:34.043 {eng}
01:27:27,868-01:38:00,917 01:27:27.868 {eng}
01:38:00,917-01:42:33,972 01:38:00.917 {eng}

This report was created by AVInaptic (18-12-2011) on 26-06-2015 01:26:37

General
Unique ID : 206211619718625146394216047258315306554 (0x9B22E9CFF9245956957B21AE4EBCB63A)
Complete name : E:\shit\unpacked\Mov\good.kill.2014.limited.720p.bluray.x264-usury.mkv
Format : Matroska
Format version : Version 4 / Version 2
File size : 4.37 GiB
Duration : 1h 42mn
Overall bit rate : 6 101 Kbps
Encoded date : UTC 2015-06-25 17:15:24
Writing application : mkvmerge v7.7.0 ('Six Voices') 64bit built on Feb 28 2015 23:39:33
Writing library : libebml v1.3.1 + libmatroska v1.4.2
DURATION : 01:42:33.963000000
NUMBER_OF_FRAMES : 576934
NUMBER_OF_BYTES : 1160791208
_STATISTICS_WRITING_APP : mkvmerge v7.7.0 ('Six Voices') 64bit built on Feb 28 2015 23:39:33
_STATISTICS_WRITING_DATE_UTC : 2015-06-25 17:15:24
_STATISTICS_TAGS : BPS DURATION NUMBER_OF_FRAMES NUMBER_OF_BYTES

Video
ID : 1
Format : AVC
Format/Info : Advanced Video Codec
Format profile : High@L4.1
Format settings, CABAC : Yes
Format settings, ReFrames : 5 frames
Codec ID : V_MPEG4/ISO/AVC
Duration : 1h 42mn
Bit rate : 4 592 Kbps
Width : 1 280 pixels
Height : 720 pixels
Display aspect ratio : 16:9
Frame rate mode : Constant
Frame rate : 23.976 fps
Color space : YUV
Chroma subsampling : 4:2:0
Bit depth : 8 bits
Scan type : Progressive
Bits/(Pixel*Frame) : 0.208
Stream size : 3.20 GiB (73%)
Writing library : x264 core 146 r2538 121396c
Encoding settings : cabac=1 / ref=5 / deblock=1:0:0 / analyse=0x3:0x133 / me=umh / subme=7 / psy=1 / psy_rd=1.00:0.00 / mixed_ref=1 / me_range=16 / chroma_me=1 / trellis=1 / 8x8dct=1 / cqm=0 / deadzone=21,11 / fast_pskip=0 / chroma_qp_offset=-2 / threads=60 / lookahead_threads=5 / sliced_threads=0 / nr=0 / decimate=1 / interlaced=0 / bluray_compat=0 / constrained_intra=0 / bframes=3 / b_pyramid=2 / b_adapt=2 / b_bias=0 / direct=3 / weightb=1 / open_gop=0 / weightp=2 / keyint=250 / keyint_min=23 / scenecut=40 / intra_refresh=0 / rc_lookahead=50 / rc=2pass / mbtree=1 / bitrate=4592 / ratetol=1.0 / qcomp=0.60 / qpmin=0 / qpmax=69 / qpstep=4 / cplxblur=20.0 / qblur=0.5 / ip_ratio=1.40 / aq=1:1.00
Language : English
Default : Yes
Forced : No
DURATION : 01:42:33.866000000
NUMBER_OF_FRAMES : 147545
NUMBER_OF_BYTES : 3530418978
_STATISTICS_WRITING_APP : mkvmerge v7.7.0 ('Six Voices') 64bit built on Feb 28 2015 23:39:33
_STATISTICS_WRITING_DATE_UTC : 2015-06-25 17:15:24
_STATISTICS_TAGS : BPS DURATION NUMBER_OF_FRAMES NUMBER_OF_BYTES

Audio
ID : 2
Format : DTS
Format/Info : Digital Theater Systems
Mode : 16
Format settings, Endianness : Big
Codec ID : A_DTS
Duration : 1h 42mn
Bit rate mode : Constant
Bit rate : 1 509 Kbps
Channel(s) : 6 channels
Channel positions : Front: L C R, Side: L R, LFE
Sampling rate : 48.0 KHz
Bit depth : 24 bits
Compression mode : Lossy
Stream size : 1.08 GiB (25%)
Language : English
Default : Yes
Forced : No

Menu
00:00:00.000 : en:00:00:00.000
00:07:17.687 : en:00:07:17.687
00:16:47.256 : en:00:16:47.256
00:25:27.901 : en:00:25:27.901
00:35:40.764 : en:00:35:40.764
00:44:26.080 : en:00:44:26.080
00:51:23.789 : en:00:51:23.789
01:00:38.218 : en:01:00:38.218
01:12:20.878 : en:01:12:20.878
01:18:34.043 : en:01:18:34.043
01:27:27.868 : en:01:27:27.868
01:38:00.917 : en:01:38:00.917

General
Unique ID : 204529237845520051893924712450030651787 (0x99DEE5FB602D2AB58E37DA2D4129498B)
Complete name : E:\shit\unpacked\Mov\good.kill.2014.limited.1080p.bluray.x264-usury.mkv
Format : Matroska
Format version : Version 4 / Version 2
File size : 7.65 GiB
Duration : 1h 42mn
Overall bit rate : 10.7 Mbps
Encoded date : UTC 2015-06-25 18:32:58
Writing application : mkvmerge v7.7.0 ('Six Voices') 64bit built on Feb 28 2015 23:39:33
Writing library : libebml v1.3.1 + libmatroska v1.4.2
DURATION : 01:42:33.963000000
NUMBER_OF_FRAMES : 576934
NUMBER_OF_BYTES : 1160791208
_STATISTICS_WRITING_APP : mkvmerge v7.7.0 ('Six Voices') 64bit built on Feb 28 2015 23:39:33
_STATISTICS_WRITING_DATE_UTC : 2015-06-25 18:32:58
_STATISTICS_TAGS : BPS DURATION NUMBER_OF_FRAMES NUMBER_OF_BYTES

Video
ID : 1
Format : AVC
Format/Info : Advanced Video Codec
Format profile : High@L4.1
Format settings, CABAC : Yes
Format settings, ReFrames : 4 frames
Codec ID : V_MPEG4/ISO/AVC
Duration : 1h 42mn
Bit rate : 9 173 Kbps
Width : 1 920 pixels
Height : 1 080 pixels
Display aspect ratio : 16:9
Frame rate mode : Constant
Frame rate : 23.976 fps
Color space : YUV
Chroma subsampling : 4:2:0
Bit depth : 8 bits
Scan type : Progressive
Bits/(Pixel*Frame) : 0.185
Stream size : 6.42 GiB (84%)
Writing library : x264 core 146 r2538 121396c
Encoding settings : cabac=1 / ref=4 / deblock=1:0:0 / analyse=0x3:0x133 / me=umh / subme=7 / psy=1 / psy_rd=1.00:0.00 / mixed_ref=1 / me_range=16 / chroma_me=1 / trellis=1 / 8x8dct=1 / cqm=0 / deadzone=21,11 / fast_pskip=0 / chroma_qp_offset=-2 / threads=60 / lookahead_threads=8 / sliced_threads=0 / nr=0 / decimate=1 / interlaced=0 / bluray_compat=0 / constrained_intra=0 / bframes=3 / b_pyramid=2 / b_adapt=2 / b_bias=0 / direct=3 / weightb=1 / open_gop=0 / weightp=2 / keyint=250 / keyint_min=23 / scenecut=40 / intra_refresh=0 / rc_lookahead=50 / rc=2pass / mbtree=1 / bitrate=9173 / ratetol=1.0 / qcomp=0.60 / qpmin=0 / qpmax=69 / qpstep=4 / cplxblur=20.0 / qblur=0.5 / ip_ratio=1.40 / aq=1:1.00
Language : English
Default : Yes
Forced : No
DURATION : 01:42:33.866000000
NUMBER_OF_FRAMES : 147545
NUMBER_OF_BYTES : 7050319508
_STATISTICS_WRITING_APP : mkvmerge v7.7.0 ('Six Voices') 64bit built on Feb 28 2015 23:39:33
_STATISTICS_WRITING_DATE_UTC : 2015-06-25 18:32:58
_STATISTICS_TAGS : BPS DURATION NUMBER_OF_FRAMES NUMBER_OF_BYTES

Audio
ID : 2
Format : DTS
Format/Info : Digital Theater Systems
Mode : 16
Format settings, Endianness : Big
Codec ID : A_DTS
Duration : 1h 42mn
Bit rate mode : Constant
Bit rate : 1 509 Kbps
Channel(s) : 6 channels
Channel positions : Front: L C R, Side: L R, LFE
Sampling rate : 48.0 KHz
Bit depth : 24 bits
Compression mode : Lossy
Stream size : 1.08 GiB (14%)
Language : English
Default : Yes
Forced : No

Menu
00:00:00.000 : en:00:00:00.000
00:07:17.687 : en:00:07:17.687
00:16:47.256 : en:00:16:47.256
00:25:27.901 : en:00:25:27.901
00:35:40.764 : en:00:35:40.764
00:44:26.080 : en:00:44:26.080
00:51:23.789 : en:00:51:23.789
01:00:38.218 : en:01:00:38.218
01:12:20.878 : en:01:12:20.878
01:18:34.043 : en:01:18:34.043
01:27:27.868 : en:01:27:27.868
01:38:00.917 : en:01:38:00.917



BDRip

 Good Kill (2014)

720p BDRip

 Good Kill (2014)

1080p BDRip

 Good Kill (2014)
NitroFlare
1 Link Download
good.kill.2014.limited.bdrip.x264-usury.mkv

good.kill.2014.limited.720p.bluray.x264-usury.mkv

good.kill.2014.limited.1080p.bluray.x264-usury.mkv