Tags
Language
Tags

The Greatest Movie Ever Sold (2011)

Posted By: a_l_chemist
The Greatest Movie Ever Sold (2011)

The Greatest Movie Ever Sold (2011)
BDRip | AVI | XviD | 592x320, 979 kbps | English: MP3, 2ch, 32 kbps | 02:27:27 | 728 MB
Genre: Documentary | Comedy

The Greatest Movie Ever Sold (officially titled POM Wonderful Presents: The Greatest Movie Ever Sold) is a 2011 documentary film directed and starring by Morgan Spurlock. The movie also starring Peter Berg, Paul Brennan, Ralph Nader, Brett Ratner and Antonio Reid.

Plot: Director Morgan Spurlock (Super Size Me, 30 Days) examines the increased proliferation of branding in every aspect of our lives while attempting to persuade big-name brands to sponsor his irreverent exposé. Companies love to push their products, and it seems like everywhere we go, someone is trying to sell us something. But have you ever wondered what goes on behind closed doors at some of the biggest advertising agencies in the world? In this eye-opening documentary, viewers follow Spurlock as he convinces a variety of high-profile sponsors to let him pitch their products as "The Greatest," while still maintaining complete control over his creative vision - an arrangement that's become increasingly rare in the high-stakes entertainment industry.
–from wikipedia
…..IMDb | Rovi
The Greatest Movie Ever Sold (2011)

The Greatest Movie Ever Sold (2011)

The Greatest Movie Ever Sold (2011)

The Greatest Movie Ever Sold (2011)

The Greatest Movie Ever Sold (2011)

General
Complete name : F:\Movies\The Greatest Movie Ever Sold Rip\The Greatest Movie Ever Sold.avi
Format : AVI
Format/Info : Audio Video Interleave
File size : 700 MiB
Duration : 1h 27mn
Overall bit rate : 1 119 Kbps
Writing application : Nandub v1.0rc2
Writing library : Nandub build 1853/release

Video
ID : 0
Format : MPEG-4 Visual
Format profile : Advanced Simple@L5
Format settings, BVOP : 2
Format settings, QPel : No
Format settings, GMC : No warppoints
Format settings, Matrix : Default (H.263)
Muxing mode : Packed bitstream
Codec ID : XVID
Codec ID/Hint : XviD
Duration : 1h 27mn
Bit rate : 979 Kbps
Width : 592 pixels
Height : 320 pixels
Display aspect ratio : 1.850
Frame rate : 23.976 fps
Color space : YUV
Chroma subsampling : 4:2:0
Bit depth : 8 bits
Scan type : Progressive
Compression mode : Lossy
Bits/(Pixel*Frame) : 0.216
Stream size : 613 MiB (88%)
Writing library : XviD 57

Audio
ID : 1
Format : MPEG Audio
Format version : Version 1
Format profile : Layer 3
Mode : Joint stereo
Mode extension : MS Stereo
Codec ID : 55
Codec ID/Hint : MP3
Duration : 1h 27mn
Bit rate mode : Constant
Bit rate : 32.0 Kbps
Channel(s) : 2 channels
Sampling rate : 48.0 KHz
Compression mode : Lossy
Delay relative to video : 8ms
Stream size : 79.4 MiB (11%)
Alignment : Aligned on interleaves
Interleave, duration : 24 ms (0.58 video frame)
Interleave, preload duration : 145 ms
Writing library : LAME3.96

Download:

Filesonic
List of links

Wupload
List of links

Fileserve
List of links

Interchangeable links

My blog on AvaxHome

.: No Mirrors Please :.