Tags
Language
Tags

How We Built the Bomb (2015)

Posted By: notbanned
How We Built the Bomb (2015)

How We Built the Bomb (2015)
HDTV | 1280x718 | .MKV/AVC @ 2251 Kbps | 1h 23mn | 1.57 GiB
Audio: English AC3 384 kbps, 6 channels | Subs: English
Genre: Documentary | Drama

In 1943, a group of America's most brilliant physicists converged on a desert mesa in New Mexico to work for the top secret Manhattan Project. In this isolated community, they worked against the ticking clock of global war to unlock the power of the atom before their Nazi counterparts or anyone else could. Witness the birth of the very first nuclear bomb on HOW WE BUILT THE BOMB, which details the story of the men behind the bomb as told in their own words, offering an unprecedented glimpse into the exceptional individuals who have ushered in the atomic age, and in doing so, changed the world. Reimagined interviews combined with historical home movies create a one-of-a-kind documentary that bring to life the story of how American ingenuity overcame the 20th century's greatest scientific challenge and ended the Second World War.
More info


General
Unique ID : 189363154563934243322680392010713187398 (0x8E76045865A0C91CB3E8538CC63AC446)
Complete name : how.we.built.the.bomb.720p.mkv
Format : Matroska
Format version : Version 4 / Version 2
File size : 1.57 GiB
Duration : 1h 23mn
Overall bit rate : 2 689 Kbps

Video
ID : 1
Format : AVC
Format/Info : Advanced Video Codec
Format profile : High@L4.1
Format settings, CABAC : Yes
Format settings, ReFrames : 5 frames
Codec ID : V_MPEG4/ISO/AVC
Duration : 1h 23mn
Bit rate : 2 251 Kbps
Width : 1 280 pixels
Height : 718 pixels
Display aspect ratio : 16:9
Frame rate mode : Constant
Frame rate : 23.976 fps
Color space : YUV
Chroma subsampling : 4:2:0
Bit depth : 8 bits
Scan type : Progressive
Bits/(Pixel*Frame) : 0.102
Stream size : 1.31 GiB (84%)
Writing library : x264 core 148 r2744 b97ae06
Encoding settings : cabac=1 / ref=5 / deblock=1:0:0 / analyse=0x3:0x113 / me=hex / subme=8 / psy=1 / psy_rd=1.00:0.00 / mixed_ref=1 / me_range=16 / chroma_me=1 / trellis=2 / 8x8dct=1 / cqm=0 / deadzone=21,11 / fast_pskip=1 / chroma_qp_offset=-2 / threads=18 / lookahead_threads=3 / sliced_threads=0 / nr=0 / decimate=1 / interlaced=0 / bluray_compat=0 / constrained_intra=0 / bframes=3 / b_pyramid=2 / b_adapt=1 / b_bias=0 / direct=3 / weightb=1 / open_gop=0 / weightp=2 / keyint=250 / keyint_min=23 / scenecut=40 / intra_refresh=0 / rc_lookahead=50 / rc=crf / mbtree=1 / crf=20.0 / qcomp=0.60 / qpmin=0 / qpmax=69 / qpstep=4 / ip_ratio=1.40 / aq=1:1.00
Default : Yes
Forced : No

Audio
ID : 2
Format : AC-3
Format/Info : Audio Coding 3
Mode extension : CM (complete main)
Format settings, Endianness : Big
Codec ID : A_AC3
Duration : 1h 23mn
Bit rate mode : Constant
Bit rate : 384 Kbps
Channel(s) : 6 channels
Channel positions : Front: L C R, Side: L R, LFE
Sampling rate : 48.0 KHz
Compression mode : Lossy
Stream size : 229 MiB (14%)
Language : English
Default : Yes
Forced : No

Text
ID : 3
Format : UTF-8
Codec ID : S_TEXT/UTF8
Codec ID/Info : UTF-8 Plain Text
Language : English
Default : No
Forced : No


Screenshots:

How We Built the Bomb (2015)

How We Built the Bomb (2015)

How We Built the Bomb (2015)

How We Built the Bomb (2015)