Invaluable: The True Story of an Epic Artist (2014)

Posted By: Tutorial
Invaluable: The True Story of an Epic Artist (2014)

Invaluable: The True Story of an Epic Artist (2014)
BRRip | 720 x 384 | .AVI/XviD @ 1600 Kbps | 1h 49mn | 1.38 GB
Audio: English MP3 192 Kbps, 2 channels | Subs: English
Genre: Documentary

An In Depth Look at EVIL DEAD special FX artist TOM SULLIVAN and how he helped get EVIL DEAD off the ground, With the help of some of his friends. Starring BRUCE CAMPBELL, ELLEN SANDWEISS, BETSY BAKER, HAL DELRICH, TED RAIMI and MORE.
Director: Ryan Meade
Stars: Betsy Baker, Josh Becker, Bruce Campbell

More info: IMDB

General
Complete name : Invaluable.The.True.Story.Of.An.Epic.Artist\Invaluable.The.True.Story.Of.An.Epic.Artist.avi
Format : AVI
Format/Info : Audio Video Interleave
Format profile : OpenDML
File size : 1.38 GiB
Duration : 1h 49mn
Overall bit rate : 1 806 Kbps
Movie name : Invaluable.The.True.Story.Of.An.Epic.Artist.2014.BRRip.XviD.MP3
Writing application : Lavf56.40.101
Comment : Invaluable.The.True.Story.Of.An.Epic.Artist.2014.BRRip.XviD.MP3

Video
ID : 0
Format : MPEG-4 Visual
Format profile : Simple@L5
Format settings, BVOP : No
Format settings, QPel : No
Format settings, GMC : No warppoints
Format settings, Matrix : Default (H.263)
Codec ID : XVID
Codec ID/Hint : XviD
Duration : 1h 49mn
Bit rate : 1 600 Kbps
Width : 720 pixels
Height : 384 pixels
Display aspect ratio : 1.882
Frame rate : 23.976 fps
Color space : YUV
Chroma subsampling : 4:2:0
Bit depth : 8 bits
Scan type : Progressive
Compression mode : Lossy
Bits/(Pixel*Frame) : 0.241
Stream size : 1.22 GiB (89%)
Title : RARBG.COM - Invaluable.The.True.Story.Of.An.Epic.Artist.2014.BRRip.XviD.MP3-
Writing library : Lavc56.60.100

Audio
ID : 1
Format : MPEG Audio
Format version : Version 1
Format profile : Layer 3
Mode : Joint stereo
Mode extension : MS Stereo
Codec ID : 55
Codec ID/Hint : MP3
Duration : 1h 49mn
Bit rate mode : Constant
Bit rate : 192 Kbps
Channel(s) : 2 channels
Sampling rate : 48.0 KHz
Compression mode : Lossy
Stream size : 150 MiB (11%)
Alignment : Aligned on interleaves
Interleave, duration : 24 ms (0.58 video frame)
Interleave, preload duration : 24 ms
Title : RARBG.COM - Invaluable.The.True.Story.Of.An.Epic.Artist.2014.BRRip.XviD.MP3-
Writing library : LAME
Screenshots

Invaluable: The True Story of an Epic Artist (2014)

Invaluable: The True Story of an Epic Artist (2014)

Invaluable: The True Story of an Epic Artist (2014)

Invaluable: The True Story of an Epic Artist (2014)

Welcome to my blog - daily update!

Invaluable: The True Story of an Epic Artist (2014)