Travel Channel - Josh Gates after Dark: Dubai (2017)

Posted By: Tutorial
Travel Channel - Josh Gates after Dark: Dubai (2017)

Travel Channel - Josh Gates after Dark: Dubai (2017)
HDTV | 1280 x 718 | .MP4/AVC @ 2428 Kbps | 48mn 5s | 779 MB
Audio: English AAC 160 Kbps, 2 channels | Subs: English
Genre: Documentary, Travel

Josh Gates travels to Dubai to experience everything the city has to offer from sunset to sunrise. Included: He feeds sharks, rides shotgun with a VIP concierge service, and catches a falcon from a hot air balloon.

also You can look my other last: Travel-posts

General
Complete name : Josh.Gates.After.Dark.Dubai.mp4
Format : MPEG-4
Format profile : Base Media
Codec ID : isom
File size : 779 MiB
Duration : 48mn 5s
Overall bit rate mode : Variable
Overall bit rate : 2 266 Kbps
Encoded date : UTC 2017-03-03 08:00:06
Tagged date : UTC 2017-03-03 08:00:06
Writing application : My MP4Box GUI 0.6.0.6

Video
ID : 1
Format : AVC
Format/Info : Advanced Video Codec
Format profile : High@L4.1
Format settings, CABAC : Yes
Format settings, ReFrames : 4 frames
Codec ID : avc1
Codec ID/Info : Advanced Video Coding
Duration : 42mn 0s
Bit rate : 2 428 Kbps
Maximum bit rate : 7 352 Kbps
Width : 1 280 pixels
Height : 718 pixels
Display aspect ratio : 16:9
Frame rate mode : Variable
Frame rate : 29.970 fps
Minimum frame rate : 29.412 fps
Maximum frame rate : 30.303 fps
Color space : YUV
Chroma subsampling : 4:2:0
Bit depth : 8 bits
Scan type : Progressive
Bits/(Pixel*Frame) : 0.088
Stream size : 729 MiB (94%)
Title : Josh.Gates.After.Dark.Dubai.720p.HDTV.x264.AAC
Writing library : x264 core 142 r2479 dd79a61
Encoding settings : cabac=1 / ref=2 / deblock=1:0:0 / analyse=0x3:0x113 / me=hex / subme=6 / psy=1 / psy_rd=1.00:0.00 / mixed_ref=1 / me_range=16 / chroma_me=1 / trellis=1 / 8x8dct=1 / cqm=0 / deadzone=21,11 / fast_pskip=1 / chroma_qp_offset=-2 / threads=6 / lookahead_threads=1 / sliced_threads=0 / nr=0 / decimate=1 / interlaced=0 / bluray_compat=0 / constrained_intra=0 / bframes=3 / b_pyramid=2 / b_adapt=1 / b_bias=0 / direct=1 / weightb=1 / open_gop=0 / weightp=1 / keyint=300 / keyint_min=30 / scenecut=40 / intra_refresh=0 / rc_lookahead=30 / rc=crf / mbtree=1 / crf=22.0 / qcomp=0.60 / qpmin=0 / qpmax=69 / qpstep=4 / vbv_maxrate=62500 / vbv_bufsize=78125 / crf_max=0.0 / nal_hrd=none / filler=0 / ip_ratio=1.40 / aq=1:1.00
Encoded date : UTC 2017-03-03 05:40:19
Tagged date : UTC 2017-03-03 08:00:37
Color primaries : BT.709-5, BT.1361, IEC 61966-2-4, SMPTE RP177
Transfer characteristics : BT.709-5, BT.1361
Matrix coefficients : BT.709-5, BT.1361, IEC 61966-2-4 709, SMPTE RP177

Audio
ID : 2
Format : AAC
Format/Info : Advanced Audio Codec
Format profile : LC
Codec ID : 40
Duration : 42mn 0s
Bit rate mode : Variable
Bit rate : 160 Kbps
Maximum bit rate : 193 Kbps
Channel(s) : 2 channels
Channel positions : Front: L R
Sampling rate : 48.0 KHz
Compression mode : Lossy
Stream size : 48.1 MiB (6%)
Title : Josh.Gates.After.Dark.Dubai.720p.HDTV.x264.AAC
Encoded date : UTC 2017-03-03 08:00:33
Tagged date : UTC 2017-03-03 08:00:37

Text #1
ID : 3
Format : Apple text
Codec ID : text
Duration : 48mn 5s
Bit rate mode : Constant
Bit rate : 0
Stream size : 138 Bytes (0%)
Title : Josh.Gates.After.Dark.Dubai.720p.HDTV.x264.AAC
Encoded date : UTC 2017-03-03 05:40:19
Tagged date : UTC 2017-03-03 08:00:37

Text #2
ID : 4
Format : Timed text
Codec ID : tx3g
Duration : 41mn 54s
Bit rate mode : Variable
Bit rate : 115 bps
Stream size : 35.2 KiB (0%)
Title : Josh.Gates.After.Dark.Dubai.720p.HDTV.x264.AAC
Encoded date : UTC 2017-03-03 08:00:37
Tagged date : UTC 2017-03-03 08:00:37
Screenshots

Travel Channel - Josh Gates after Dark: Dubai (2017)

Travel Channel - Josh Gates after Dark: Dubai (2017)

Travel Channel - Josh Gates after Dark: Dubai (2017)

Travel Channel - Josh Gates after Dark: Dubai (2017)

Travel Channel - Josh Gates after Dark: Dubai (2017)

Welcome to my blog - daily update!

Travel Channel - Josh Gates after Dark: Dubai (2017)