Karl Marx City (2016)

Posted By: notbanned
SD / DVDRip IMDb
Karl Marx City (2016)

Karl Marx City (2016)
DVDRip | 720x406 | .MKV/AVC @ 1568 Kbps | 1 h 29 min | 1.03 GiB
Audio: German AAC 91.4 kbps, 2 channels | Subs: None
Genre: Documentary

A filmmaker journey through the former East Germany looking into her father's 1999 suicide.

General
Unique ID : 221072311949561975424735838038134410849 (0xA650FA81FB38B1D2985310ADC538CE61)
Complete name : karl.marx.city.2016.limited.dvdrip.mkv
Format : Matroska
Format version : Version 4 / Version 2
File size : 1.03 GiB
Duration : 1 h 29 min
Overall bit rate : 1 662 kb/s

Video
ID : 1
Format : AVC
Format/Info : Advanced Video Codec
Format profile : High@L3.1
Format settings, CABAC : Yes
Format settings, ReFrames : 5 frames
Codec ID : V_MPEG4/ISO/AVC
Duration : 1 h 29 min
Bit rate : 1 568 kb/s
Width : 720 pixels
Height : 406 pixels
Display aspect ratio : 16:9
Frame rate mode : Constant
Frame rate : 23.976 (24000/1001) FPS
Color space : YUV
Chroma subsampling : 4:2:0
Bit depth : 8 bits
Scan type : Progressive
Bits/(Pixel*Frame) : 0.224
Stream size : 1 000 MiB (94%)
Writing library : x264 core 155 r2893 b00bcaf
Encoding settings : cabac=1 / ref=5 / deblock=1:-3:-3 / analyse=0x3:0x113 / me=umh / subme=8 / psy=1 / psy_rd=0.80:0.00 / mixed_ref=1 / me_range=16 / chroma_me=1 / trellis=2 / 8x8dct=1 / cqm=0 / deadzone=21,11 / fast_pskip=1 / chroma_qp_offset=-2 / threads=12 / lookahead_threads=2 / sliced_threads=0 / nr=0 / decimate=1 / interlaced=0 / bluray_compat=0 / constrained_intra=0 / bframes=3 / b_pyramid=2 / b_adapt=2 / b_bias=0 / direct=3 / weightb=1 / open_gop=0 / weightp=2 / keyint=240 / keyint_min=23 / scenecut=40 / intra_refresh=0 / rc_lookahead=50 / rc=crf / mbtree=1 / crf=19.0 / qcomp=0.60 / qpmin=0 / qpmax=69 / qpstep=4 / ip_ratio=1.40 / aq=1:1.00
Language : English
Default : Yes
Forced : No

Audio
ID : 2
Format : AAC
Format/Info : Advanced Audio Codec
Format profile : LC
Codec ID : A_AAC
Duration : 1 h 29 min
Bit rate : 91.4 kb/s
Channel(s) : 1 channel
Channel positions : Front: C
Sampling rate : 48.0 kHz
Frame rate : 46.875 FPS (1024 spf)
Compression mode : Lossy
Delay relative to video : 9 ms
Stream size : 58.3 MiB (6%)
Language : German
Default : Yes
Forced : No

Menu #1
00:00:00.000 : en:Chapter 01
00:05:59.500 : en:Chapter 02
00:12:38.500 : en:Chapter 03
00:24:15.000 : en:Chapter 04
00:31:25.500 : en:Chapter 05
00:36:44.000 : en:Chapter 06
00:43:28.000 : en:Chapter 07
00:48:09.500 : en:Chapter 08
00:54:25.000 : en:Chapter 09
01:08:43.000 : en:Chapter 10
01:24:20.000 : en:Chapter 11
01:27:06.500 : en:Chapter 12

Menu #2
00:00:00.054 : en:00:00:00.054


Screenshots:

Karl Marx City (2016)

Karl Marx City (2016)

Karl Marx City (2016)

Karl Marx City (2016)