Subcategories

Keith Richards: Under the Influence (2015)

Posted By: Tutorial
Keith Richards: Under the Influence (2015)

Keith Richards: Under the Influence (2015)
WEBRip | 1920 x 800 | .MKV/AVC @ 8155 Kbps | 1h 21mn | 5.10 GB
Audio: English AC-3 640 kbps, 6 channels | Subs: English, French, German, Spanish
Genre: Documentary

A portrait of Keith Richards that takes us on a journey to discover the genesis of his sound as a songwriter, guitarist and performer.
Director: Morgan Neville
Stars: Steve Jordan, Keith Richards, Waddy Wachtel
More info: IMDB

General
Unique ID : 172556502682931171332477952830328931234 (0x81D12C6E881B2B72BA5A13FDFCB603A2)
Complete name : Keith.Richards.Under.the.Influence.mkv
Format : Matroska
Format version : Version 4 / Version 2
File size : 5.10 GiB
Duration : 1h 21mn
Overall bit rate : 8 974 Kbps
Movie name : Keith.Richards.Under.the.Influence.2015.DOCU.1080p.NF.WEBRip.x264.DD5.1-FGT
Encoded date : UTC 2016-05-27 07:22:43
Writing application : mkvmerge v9.1.0 ('Little Earthquakes') 64bit
Writing library : libebml v1.3.3 + libmatroska v1.4.4
Attachment : Yes / Yes / Yes / Yes

Video
ID : 1
Format : AVC
Format/Info : Advanced Video Codec
Format profile : High@L4.1
Format settings, CABAC : Yes
Format settings, ReFrames : 4 frames
Codec ID : V_MPEG4/ISO/AVC
Duration : 1h 21mn
Bit rate : 8 155 Kbps
Width : 1 920 pixels
Height : 800 pixels
Display aspect ratio : 2.40:1
Frame rate mode : Variable
Frame rate : 23.976 fps
Color space : YUV
Chroma subsampling : 4:2:0
Bit depth : 8 bits
Scan type : Progressive
Bits/(Pixel*Frame) : 0.221
Stream size : 4.63 GiB (91%)
Title : Keith.Richards.Under.the.Influence.2015.DOCU.1080p.NF.WEBRip.x264.DD5.1-FGT
Writing library : x264 core 148 r2601 a0cd7d3
Encoding settings : cabac=1 / ref=4 / deblock=1:0:0 / analyse=0x3:0x113 / me=umh / subme=8 / psy=1 / psy_rd=1.00:0.00 / mixed_ref=1 / me_range=16 / chroma_me=1 / trellis=1 / 8x8dct=1 / cqm=0 / deadzone=21,11 / fast_pskip=1 / chroma_qp_offset=-2 / threads=12 / lookahead_threads=2 / sliced_threads=0 / nr=0 / decimate=1 / interlaced=0 / bluray_compat=0 / constrained_intra=0 / bframes=3 / b_pyramid=2 / b_adapt=2 / b_bias=0 / direct=3 / weightb=1 / open_gop=0 / weightp=2 / keyint=250 / keyint_min=23 / scenecut=40 / intra_refresh=0 / rc_lookahead=50 / rc=crf / mbtree=1 / crf=17.0 / qcomp=0.60 / qpmin=0 / qpmax=69 / qpstep=4 / ip_ratio=1.40 / aq=1:1.00
Language : English
Default : Yes
Forced : No

Audio
ID : 2
Format : AC-3
Format/Info : Audio Coding 3
Mode extension : CM (complete main)
Codec ID : A_AC3
Duration : 1h 21mn
Bit rate mode : Constant
Bit rate : 640 Kbps
Channel(s) : 6 channels
Channel positions : Front: L C R, Side: L R, LFE
Sampling rate : 48.0 KHz
Bit depth : 16 bits
Compression mode : Lossy
Stream size : 372 MiB (7%)
Title : Keith.Richards.Under.the.Influence.2015.DOCU.1080p.NF.WEBRip.x264.DD5.1-FGT
Language : English
Default : Yes
Forced : No

Text #1
ID : 3
Format : UTF-8
Codec ID : S_TEXT/UTF8
Codec ID/Info : UTF-8 Plain Text
Language : English
Default : Yes
Forced : No

Text #2
ID : 4
Format : UTF-8
Codec ID : S_TEXT/UTF8
Codec ID/Info : UTF-8 Plain Text
Language : French
Default : No
Forced : No

Text #3
ID : 5
Format : UTF-8
Codec ID : S_TEXT/UTF8
Codec ID/Info : UTF-8 Plain Text
Language : German
Default : No
Forced : No

Text #4
ID : 6
Format : UTF-8
Codec ID : S_TEXT/UTF8
Codec ID/Info : UTF-8 Plain Text
Language : Spanish
Default : No
Forced : No
Screenshots

Keith Richards: Under the Influence (2015)

Keith Richards: Under the Influence (2015)

Keith Richards: Under the Influence (2015)

Keith Richards: Under the Influence (2015)


Keith Richards: Under the Influence (2015)