Meek's Cutoff (2010)

Posted By: a_l_chemist
Meek's Cutoff (2010)

Meek's Cutoff (2010)
DVDRip | AVI | XviD | 576x432, 856 kbps | English: MP3, 2ch, 128 kbps | 01:38:18 | 728 MB
Genre: Western

Meek's Cutoff is a 2010 western film directed by Kelly Reichardt and starring Michelle Williams, Paul Dano and Bruce Greenwood. The film is based on a historical incident on the Oregon Trail in 1845, in which frontier guide Stephen Meek led a wagon train on an ill-fated journey through the Oregon desert to find the route known as the Meek Cutoff.
The film was shown in competition at the 67th Venice International Film Festival.

Plot: In 1845, a small band of settlers traveling across the Oregon High Desert suspect their guide, Stephen Meek, may not actually know where he is going. What was supposed to be a two-week journey has stretched into five. With no end in sight, tensions rise as water becomes increasingly scarce and supplies run low. The wives look on as the husbands discuss what to do, unable to participate in the decision making. The dynamics of power begins to shift when they capture a lone Indian and hold him captive so he may lead them to water. Questions plague the settlers as they press on with dwindling resources: Should they trust Meek? Will the Indian lead them to water or a trap? Are there others following them? How much longer can they survive?
–from wikipedia
…..IMDb | Rovi
Meek's Cutoff (2010)

Meek's Cutoff (2010)

Meek's Cutoff (2010)

Meek's Cutoff (2010)

Meek's Cutoff (2010)

General
Complete name : F:\Movies\Meeks Cutoff\Meeks Cutoff.avi
Format : AVI
Format/Info : Audio Video Interleave
File size : 700 MiB
Duration : 1h 38mn
Overall bit rate : 995 Kbps
Writing application : VirtualDubMod 1.5.10.2 (build 2540/release)
Writing library : VirtualDubMod build 2540/release

Video
ID : 0
Format : MPEG-4 Visual
Format profile : Advanced Simple@L5
Format settings, BVOP : 2
Format settings, QPel : No
Format settings, GMC : No warppoints
Format settings, Matrix : Default (H.263)
Codec ID : XVID
Codec ID/Hint : XviD
Duration : 1h 38mn
Bit rate : 856 Kbps
Width : 576 pixels
Height : 432 pixels
Display aspect ratio : 4:3
Frame rate : 25.000 fps
Color space : YUV
Chroma subsampling : 4:2:0
Bit depth : 8 bits
Scan type : Progressive
Compression mode : Lossy
Bits/(Pixel*Frame) : 0.138
Stream size : 602 MiB (86%)
Writing library : XviD 1.2.1 (UTC 2008-12-04)

Audio
ID : 1
Format : MPEG Audio
Format version : Version 1
Format profile : Layer 3
Mode : Joint stereo
Mode extension : MS Stereo
Codec ID : 55
Codec ID/Hint : MP3
Duration : 1h 38mn
Bit rate mode : Variable
Bit rate : 128 Kbps
Channel(s) : 2 channels
Sampling rate : 48.0 KHz
Compression mode : Lossy
Stream size : 88.5 MiB (13%)
Alignment : Aligned on interleaves
Interleave, duration : 24 ms (0.60 video frame)
Interleave, preload duration : 146 ms
Writing library : LAME3.90

Download:

Filesonic
List of links

Wupload
List of links

Fileserve
List of links

Interchangeable links

My blog on AvaxHome

.: No Mirrors Please :.