(Arte) Mystères D'archives - 1989, les manifestations de la place Tian'anmen (2011)

Posted By: Morocco
(Arte) Mystères D'archives - 1989, les manifestations de la place Tian'anmen (2011)

(Arte) Mystères D'archives - 1989, les manifestations de la place Tian'anmen (2011)
TNT-Rip by Clo2 | French | 26min | 640 x 368 | 25.000 fps | Avi | MPEG-4 XviD @ 898 Kbps | MP3 @ 112 Kbps | 190 MB
Genre : Documentaire

Mai 1989. L'immense place Tian'anmen, au coeur de Pékin, est occupée par des étudiants. Des reporters venus du monde entier filment leurs manifestations pour des réformes politiques. Dans la nuit du 3 au 4 juin, l'armée chinoise chasse les manifestants de Tian'anmen. Pourquoi cette répression ? Et comment se fait-il que des centaines de journalistes étrangers aient été là pour en témoigner ?

Format : AVI
Format/Info : Audio Video Interleave
File size : 190 MiB
Duration : 26mn 3s
Overall bit rate : 1 017 Kbps
Writing application : VirtualDubMod 1.5.10.3 Fr | www.virtualdub-fr.org || (build 2550/release)
Writing library : VirtualDubMod build 2550/release

Video
ID : 0
Format : MPEG-4 Visual
Format profile : Advanced Simple@L5
Format settings, BVOP : Yes
Format settings, QPel : No
Format settings, GMC : No warppoints
Format settings, Matrix : Default (MPEG)
Codec ID : XVID
Codec ID/Hint : XviD
Duration : 26mn 3s
Bit rate : 895 Kbps
Width : 640 pixels
Height : 368 pixels
Display aspect ratio : 16:9
Frame rate : 25.000 fps
Color space : YUV
Chroma subsampling : 4:2:0
Bit depth : 8 bits
Scan type : Progressive
Compression mode : Lossy
Bits/(Pixel*Frame) : 0.152
Stream size : 167 MiB (88%)
Writing library : XviD 57

Audio
ID : 1
Format : MPEG Audio
Format version : Version 1
Format profile : Layer 3
Mode : Joint stereo
Mode extension : MS Stereo
Codec ID : 55
Codec ID/Hint : MP3
Duration : 26mn 3s
Bit rate mode : Constant
Bit rate : 112 Kbps
Channel(s) : 2 channels
Sampling rate : 48.0 KHz
Compression mode : Lossy
Stream size : 20.9 MiB (11%)
Alignment : Aligned on interleaves
Interleave, duration : 40 ms (1.00 video frame)
Interleave, preload duration : 504 ms
Writing library : LAME3.98r
Encoding settings : -m j -V 4 -q 3 -lowpass 15.6 -b 112


(Arte) Mystères D'archives - 1989, les manifestations de la place Tian'anmen (2011)

(Arte) Mystères D'archives - 1989, les manifestations de la place Tian'anmen (2011)

(Arte) Mystères D'archives - 1989, les manifestations de la place Tian'anmen (2011)

~ Liens interchangeables ~



No Pass ;)

Un merci ?

D'autres "Mystères d'Archives" ? >> Listing des documentaires