(Arte) Népal, la pharmacie de la jungle (2011)

Posted By: Morocco
(Arte) Népal, la pharmacie de la jungle (2011)

(Arte) Népal, la pharmacie de la jungle (2011)
TNT-Rip by Clo2 | French | 27min | 640 x 368 | 25.000 fps | Avi | MPEG-4 XviD @ 893 Kbps | MP3 @ 112 Kbps | 314 MB
Genre : Documentaire

Nomades venus du Tibet considérés comme les premiers habitants du Népal, les Chepang sont réputés pour leur connaissance des plantes et des herbes médicinales. Un savoir traditionnel qu'ils mettent au service de la santé des Népalais.

Format : AVI
Format/Info : Audio Video Interleave
File size : 314 MiB
Duration : 43mn 15s
Overall bit rate : 1 014 Kbps
Writing application : VirtualDubMod 1.5.10.3 Fr | www.virtualdub-fr.org || (build 2550/release)
Writing library : VirtualDubMod build 2550/release

Video
ID : 0
Format : MPEG-4 Visual
Format profile : Advanced Simple@L5
Format settings, BVOP : 2
Format settings, QPel : No
Format settings, GMC : No warppoints
Format settings, Matrix : Default (MPEG)
Muxing mode : Packed bitstream
Codec ID : XVID
Codec ID/Hint : XviD
Duration : 43mn 15s
Bit rate : 893 Kbps
Width : 640 pixels
Height : 368 pixels
Display aspect ratio : 16:9
Frame rate : 25.000 fps
Color space : YUV
Chroma subsampling : 4:2:0
Bit depth : 8 bits
Scan type : Progressive
Compression mode : Lossy
Bits/(Pixel*Frame) : 0.152
Stream size : 276 MiB (88%)
Writing library : XviD 57

Audio
ID : 1
Format : MPEG Audio
Format version : Version 1
Format profile : Layer 3
Mode : Joint stereo
Mode extension : MS Stereo
Codec ID : 55
Codec ID/Hint : MP3
Duration : 43mn 15s
Bit rate mode : Constant
Bit rate : 112 Kbps
Channel(s) : 2 channels
Sampling rate : 48.0 KHz
Compression mode : Lossy
Stream size : 34.7 MiB (11%)
Alignment : Aligned on interleaves
Interleave, duration : 40 ms (1.00 video frame)
Interleave, preload duration : 504 ms
Writing library : LAME3.98r
Encoding settings : -m j -V 4 -q 3 -lowpass 15.6 -b 112


(Arte) Népal, la pharmacie de la jungle (2011)

(Arte) Népal, la pharmacie de la jungle (2011)

(Arte) Népal, la pharmacie de la jungle (2011)

~ Liens interchangeables ~



No Pass ;)

Un merci ?

D'autres documentaires ? >> Listing des documentaires