Tags
Language
Tags

Nothing Like a Dame (2018)

Posted By: notbanned
Nothing Like a Dame (2018)

Nothing Like a Dame (2018)
DVDRip | 720x404 | .MKV/AVC @ 935 Kbps | 1 h 19 min | 601 MiB
Audio: English AAC 112 kbps, 2 channels | Subs: None
Genre: Documentary

Dames Eileen Atkins, Judi Dench, Joan Plowright and Maggie Smith have let the cameras in on a friendship that goes back more than half a century. The four acting greats discuss their careers and reminisce about their humble beginnings in the theatre.

General
Unique ID : 4258849165145678537019099620395119175 (0x3343979B8CC2723FC1F4FF29E82F247)
Complete name : nothing.like.a.dame.2018.limited.dvdrip.mkv
Format : Matroska
Format version : Version 4 / Version 2
File size : 601 MiB
Duration : 1 h 19 min
Overall bit rate : 1 050 kb/s

Video
ID : 1
Format : AVC
Format/Info : Advanced Video Codec
Format profile : High@L3.1
Format settings, CABAC : Yes
Format settings, ReFrames : 5 frames
Codec ID : V_MPEG4/ISO/AVC
Duration : 1 h 19 min
Bit rate : 935 kb/s
Width : 720 pixels
Height : 404 pixels
Display aspect ratio : 16:9
Frame rate mode : Constant
Frame rate : 25.000 FPS
Color space : YUV
Chroma subsampling : 4:2:0
Bit depth : 8 bits
Scan type : Progressive
Bits/(Pixel*Frame) : 0.129
Stream size : 535 MiB (89%)
Writing library : x264 core 155 r2901 7d0ff22
Encoding settings : cabac=1 / ref=5 / deblock=1:-3:-3 / analyse=0x3:0x113 / me=hex / subme=8 / psy=1 / psy_rd=1.00:0.15 / mixed_ref=1 / me_range=16 / chroma_me=1 / trellis=2 / 8x8dct=1 / cqm=0 / deadzone=21,11 / fast_pskip=1 / chroma_qp_offset=-3 / threads=13 / lookahead_threads=2 / sliced_threads=0 / nr=0 / decimate=1 / interlaced=0 / bluray_compat=0 / constrained_intra=0 / bframes=3 / b_pyramid=2 / b_adapt=1 / b_bias=0 / direct=3 / weightb=1 / open_gop=0 / weightp=2 / keyint=250 / keyint_min=25 / scenecut=40 / intra_refresh=0 / rc_lookahead=50 / rc=crf / mbtree=1 / crf=19.0 / qcomp=0.60 / qpmin=0 / qpmax=69 / qpstep=4 / vbv_maxrate=17500 / vbv_bufsize=17500 / crf_max=0.0 / nal_hrd=none / filler=0 / ip_ratio=1.40 / aq=1:0.60
Default : Yes
Forced : No

Audio
ID : 2
Format : AAC
Format/Info : Advanced Audio Codec
Format profile : LC
Codec ID : A_AAC
Duration : 1 h 19 min
Bit rate : 112 kb/s
Channel(s) : 2 channels
Channel positions : Front: L R
Sampling rate : 48.0 kHz
Frame rate : 46.875 FPS (1024 spf)
Compression mode : Lossy
Delay relative to video : 20 ms
Stream size : 64.0 MiB (11%)
Language : English
Default : Yes
Forced : No

Menu
00:00:00.000 : en:Chapter 1
00:08:51.920 : en:Chapter 2
00:18:55.080 : en:Chapter 3
00:29:23.640 : en:Chapter 4
00:39:00.040 : en:Chapter 5
00:49:10.200 : en:Chapter 6
00:58:00.680 : en:Chapter 7
01:08:06.400 : en:Chapter 8
01:20:06.160 : en:Chapter 9


Screenshots:

Nothing Like a Dame (2018)

Nothing Like a Dame (2018)

Nothing Like a Dame (2018)

Nothing Like a Dame (2018)