Outfoxed: Rupert Murdoch's War on Journalism (2004)

Posted By: notbanned
Outfoxed: Rupert Murdoch's War on Journalism (2004)

Outfoxed: Rupert Murdoch's War on Journalism (2004)
DVDRip | 640x480 | .MKV/AVC @ 1545 Kbps | 1 h 17 min | 900 MiB
Audio: English AAC 79.2 kbps, 2 channels | Subs: None
Genre: Documentary

Documentary on reported Conservative bias of the Rupert Murdoch-owned Fox News Channel (FNC), which promotes itself as "Fair and Balanced". Material includes interviews with former FNC employees and the inter-office memos they provided.
More info


General
Unique ID : 240391907154370696491992013146360582084 (0xB4D9CC17C506E89EA2E29F87B3230FC4)
Complete name : outfoxed.rupert.murdochs.war.on.journalism.dvdrip.mkv
Format : Matroska
Format version : Version 4 / Version 2
File size : 900 MiB
Duration : 1 h 17 min
Overall bit rate : 1 625 kb/s

Video
ID : 1
Format : AVC
Format/Info : Advanced Video Codec
Format profile : High@L3.1
Format settings, CABAC : Yes
Format settings, ReFrames : 5 frames
Codec ID : V_MPEG4/ISO/AVC
Duration : 1 h 17 min
Bit rate : 1 545 kb/s
Width : 640 pixels
Height : 480 pixels
Display aspect ratio : 4:3
Frame rate mode : Constant
Frame rate : 29.970 (30000/1001) FPS
Color space : YUV
Chroma subsampling : 4:2:0
Bit depth : 8 bits
Scan type : Progressive
Bits/(Pixel*Frame) : 0.168
Stream size : 855 MiB (95%)
Writing library : x264 core 152 r2851 ba24899
Encoding settings : cabac=1 / ref=5 / deblock=1:0:0 / analyse=0x3:0x113 / me=hex / subme=8 / psy=1 / psy_rd=1.00:0.00 / mixed_ref=1 / me_range=16 / chroma_me=1 / trellis=2 / 8x8dct=1 / cqm=0 / deadzone=21,11 / fast_pskip=1 / chroma_qp_offset=-2 / threads=12 / lookahead_threads=2 / sliced_threads=0 / nr=0 / decimate=1 / interlaced=0 / bluray_compat=0 / constrained_intra=0 / bframes=3 / b_pyramid=2 / b_adapt=1 / b_bias=0 / direct=3 / weightb=1 / open_gop=0 / weightp=2 / keyint=250 / keyint_min=25 / scenecut=40 / intra_refresh=0 / rc_lookahead=50 / rc=crf / mbtree=1 / crf=19.0 / qcomp=0.60 / qpmin=0 / qpmax=69 / qpstep=4 / ip_ratio=1.40 / aq=1:1.00
Default : Yes
Forced : No

Audio
ID : 2
Format : AAC
Format/Info : Advanced Audio Codec
Format profile : LC
Codec ID : A_AAC
Duration : 1 h 17 min
Bit rate : 79.2 kb/s
Channel(s) : 1 channel
Channel positions : Front: C
Sampling rate : 48.0 kHz
Frame rate : 46.875 FPS (1024 spf)
Compression mode : Lossy
Delay relative to video : 20 ms
Stream size : 43.9 MiB (5%)
Language : English
Default : Yes
Forced : No


Screenshots:

Outfoxed: Rupert Murdoch's War on Journalism (2004)

Outfoxed: Rupert Murdoch's War on Journalism (2004)

Outfoxed: Rupert Murdoch's War on Journalism (2004)

Outfoxed: Rupert Murdoch's War on Journalism (2004)