(Arte) Philosophie : Cool (2012)

Posted By: Morocco
(Arte) Philosophie : Cool (2012)

(Arte) Philosophie : Cool (2012)
TNT-Rip by Clo2 | French | 26min | 640 x 368 | 25.000 fps | Avi | MPEG-4 XviD @ 894 Kbps | MP3 @ 112 Kbps | 190 MB
Genre : Documentaire

"Be cool", "keep cool"… : ces injonctions devenues courantes transforment en obligation le refus nonchalant d'être forcé d'agir. Et si le cool, loin d'être cool, était l'une des formes les plus paradoxales de la servitude ?

Réponse avec l'écrivaine Claude Habib, spécialiste de la littérature du XVIIIe siècle, qui a présenté ses "remarques sur le cool" lors d'un colloque consacré à la civilité moderne en 2011.

Invitée : Claude Habib

Ancienne élève de l'E.N.S de Fontenay-aux-Roses (1975-1980), agrégée de Lettres modernes (1978), docteur en lettres, Claude Habib est spécialiste du XVIIIe siècle.

Ses premiers travaux ont porté sur la question de la différence des sexes chez Rousseau, et particulièrement sur la notion de pudeur féminine – une notion qui tend à devenir étrangère à la société contemporaine, où elle est souvent tenue pour un préjugé anti-égalitaire.

Elle a enseigné en collège et en lycée, avant de rejoindre l’Université de Lille III en 1989 comme maître de conférences. Elle est professeur de littérature française à l'Université de Lille III depuis 1999.

Par ailleurs elle est membre du comité de rédaction de la revue « Esprit ». Elle est également au comité de la collection « Littérature et Politique », aux éditions Belin, avec Claude Lefort, Claude Mouchard et Pierre Pachet.

Format : AVI
Format/Info : Audio Video Interleave
File size : 190 MiB
Duration : 26mn 10s
Overall bit rate : 1 015 Kbps
Writing application : VirtualDubMod 1.5.10.3 Fr | www.virtualdub-fr.org || (build 2550/release)
Writing library : VirtualDubMod build 2550/release

Video
ID : 0
Format : MPEG-4 Visual
Format profile : Advanced Simple@L5
Format settings, BVOP : 2
Format settings, QPel : No
Format settings, GMC : No warppoints
Format settings, Matrix : Default (MPEG)
Muxing mode : Packed bitstream
Codec ID : XVID
Codec ID/Hint : XviD
Duration : 26mn 10s
Bit rate : 894 Kbps
Width : 640 pixels
Height : 368 pixels
Display aspect ratio : 1.739
Frame rate : 25.000 fps
Color space : YUV
Chroma subsampling : 4:2:0
Bit depth : 8 bits
Scan type : Progressive
Compression mode : Lossy
Bits/(Pixel*Frame) : 0.152
Stream size : 167 MiB (88%)
Writing library : XviD 64

Audio
ID : 1
Format : MPEG Audio
Format version : Version 1
Format profile : Layer 3
Mode : Joint stereo
Mode extension : MS Stereo
Codec ID : 55
Codec ID/Hint : MP3
Duration : 26mn 10s
Bit rate mode : Constant
Bit rate : 112 Kbps
Channel(s) : 2 channels
Sampling rate : 48.0 KHz
Compression mode : Lossy
Stream size : 21.0 MiB (11%)
Alignment : Aligned on interleaves
Interleave, duration : 40 ms (1.00 video frame)
Interleave, preload duration : 504 ms
Writing library : LAME3.98r
Encoding settings : -m j -V 4 -q 3 -lowpass 15.6 -b 112


(Arte) Philosophie : Cool (2012)

(Arte) Philosophie : Cool (2012)

No Pass ;)

Un merci ?
~ Lien ~

Uploaded
ou
Uptobox