Rafinha Bastos – A Arte do Insulto

Posted By: TimMa
Rafinha Bastos – A Arte do Insulto

Rafinha Bastos – A Arte do Insulto
2011 | Portuguese | DVD-Rip | AVI+RMVB | 688x384 | XviD 1681//RV40 381 Kbps | 23.976 fps | MP3 128/cook 64 Kbps | Lenght: 00:53:46 | 731.92+175.69 Mb
Genre: Comedy | Country: Brazil | ASIN: B0057B2S7U| Author: Rafinha Bastos | Subtitles: No

Após 4 anos de apresentações lotadas por todo o país, Rafinha Bastos lança o DVD de seu primeiro show solo de stand-up comedy: A Arte do Insulto. No espetáculo que o projetou, Rafinha destila humor e muita polêmica. O ator judeu e gaúcho não poupa as próprias raízes – e nem as alheias. Em cima de um palco, apenas um microfone, um banco, muito sarcasmo e ironia.
Rafinha Bastos – A Arte do Insulto
Rafinha Bastos diz o que pensa, em um show sem frescura, sem censura e sem limite. Ah… e nos extras, um documentário de 30 minutos com o primeiro show do comediante em sua cidade natal: Porto Alegre. Muito legal! Pelo menos foi o que ele e três carpinteiros suecos disseram. Rafinha Bastos Apresentador do CQC e A Liga, Rafinha Bastos está entre os 30 comediantes mais assistidos do mundo no site YouTube. Seus vídeos, com trechos de stand-up comedy, já têm mais de 50 milhões de visualizações e viraram febre na Internet. Como ator, foi um dos protagonistas do seriado “Mothern” do canal GNT, além de realizar dezenas de campanhas publicitárias.
Rafinha Bastos – A Arte do Insulto
Format : AVI
Format/Info : Audio Video Interleave
File size : 699 MiB
Duration : 53mn 46s
Overall bit rate : 1 819 Kbps
Writing application : FairUse Wizard - http://fairusewizard.com
Writing library : The best and REALLY easy backup tool

Video
ID : 0
Format : MPEG-4 Visual
Format profile : Advanced Simple@L5
Format settings, BVOP : 1
Format settings, QPel : No
Format settings, GMC : No warppoints
Format settings, Matrix : Default (MPEG)
Muxing mode : Packed bitstream
Codec ID : XVID
Codec ID/Hint : XviD
Duration : 53mn 46s
Bit rate : 1 681 Kbps
Width : 688 pixels
Height : 384 pixels
Display aspect ratio : 16:9
Frame rate : 23.976 fps
Color space : YUV
Chroma subsampling : 4:2:0
Bit depth : 8 bits
Scan type : Progressive
Compression mode : Lossy
Bits/(Pixel*Frame) : 0.265
Stream size : 647 MiB (92%)
Writing library : XviD 1.2.1 (UTC 2008-12-04)

Audio
ID : 1
Format : MPEG Audio
Format version : Version 1
Format profile : Layer 3
Mode : Joint stereo
Mode extension : MS Stereo
Codec ID : 55
Codec ID/Hint : MP3
Duration : 53mn 46s
Bit rate mode : Constant
Bit rate : 128 Kbps
Channel(s) : 2 channels
Sampling rate : 48.0 KHz
Compression mode : Lossy
Stream size : 49.2 MiB (7%)
Alignment : Aligned on interleaves
Interleave, duration : 42 ms (1.00 video frame)
Interleave, preload duration : 504 ms
Writing library : LAME3.97
Encoding settings : -m j -V 4 -q 2 -lowpass 17 -b 128

Rafinha Bastos – A Arte do Insulto
Format : RealMedia
File size : 176 MiB
Duration : 53mn 46s
Overall bit rate : 446 Kbps

Video
ID : 1
Format : RealVideo 4
Codec ID : RV40
Codec ID/Info : Based on AVC (H.264), Real Player 9
Duration : 53mn 46s
Bit rate : 381 Kbps
Width : 688 pixels
Height : 384 pixels
Display aspect ratio : 16:9
Frame rate : 23.976 fps
Bits/(Pixel*Frame) : 0.060
Stream size : 147 MiB (84%)

Audio
ID : 0
Format : Cooker
Codec ID : cook
Codec ID/Info : Based on G.722.1, Real Player 6
Duration : 53mn 46s
Bit rate : 64.1 Kbps
Channel(s) : 2 channels
Sampling rate : 44.1 KHz
Bit depth : 16 bits
Stream size : 24.6 MiB (14%)

Rafinha Bastos – A Arte do Insulto