Repeaters (2010)

Posted By: a_l_chemist
Repeaters (2010)

Repeaters (2010)
DVDRip | AVI | XviD | 640x272, 959 kbps | English: MP3, 2ch, 128 kbps | 01:29:14 | 728 MB
Genre: Drama | Sci-Fi | Thriller

Repeaters is a 2010 Canadian film directed by Carl Bessai and starring Dustin Milligan, Amanda Crew and Richard de Klerk.

Plot: A gritty mind-bending thriller about three twenty-somethings who find themselves in an impossible time labyrinth, where each day they awaken to the same terrifying day as the preceding one.
–from Rovi
…..IMDb
Repeaters (2010)

Repeaters (2010)

Repeaters (2010)

Repeaters (2010)

Repeaters (2010)

General
Complete name : E:\Movies\Repeaters\Repeaters.avi
Format : AVI
Format/Info : Audio Video Interleave
File size : 700 MiB
Duration : 1h 29mn
Overall bit rate : 1 097 Kbps
Writing application : VirtualDubMod 1.5.10.2 (build 2540/release)
Writing library : VirtualDubMod build 2540/release

Video
ID : 0
Format : MPEG-4 Visual
Format profile : Advanced Simple@L5
Format settings, BVOP : 3
Format settings, QPel : Yes
Format settings, GMC : 3 warppoints
Format settings, Matrix : Default (H.263)
Codec ID : XVID
Codec ID/Hint : XviD
Duration : 1h 29mn
Bit rate : 959 Kbps
Width : 640 pixels
Height : 272 pixels
Display aspect ratio : 2.35:1
Frame rate : 23.976 fps
Color space : YUV
Chroma subsampling : 4:2:0
Bit depth : 8 bits
Scan type : Progressive
Compression mode : Lossy
Bits/(Pixel*Frame) : 0.230
Stream size : 612 MiB (87%)
Writing library : XviD 1.2.0.dev47 (UTC 2006-11-01)

Audio
ID : 1
Format : MPEG Audio
Format version : Version 1
Format profile : Layer 3
Codec ID : 55
Codec ID/Hint : MP3
Duration : 1h 29mn
Bit rate mode : Constant
Bit rate : 128 Kbps
Channel(s) : 2 channels
Sampling rate : 48.0 KHz
Compression mode : Lossy
Stream size : 81.7 MiB (12%)
Alignment : Aligned on interleaves
Interleave, duration : 42 ms (1.00 video frame)
Interleave, preload duration : 504 ms
Writing library : LAME3.97

Download:

Filesonic
List of links

Wupload
List of links

Fileserve
List of links

Interchangeable links

My blog on AvaxHome

.: No Mirrors Please :.