(Arte) Secrets d'amour (2013)

Posted By: Morocco
(Arte) Secrets d'amour (2013)

(Arte) Secrets d'amour (2013)
TNT-Rip by Clo2 | French | 1h27min | 640 x 368 | 25.000 fps | MP4 | AVC High@L3.1 @ 800 Kbps | MPEG Audio @ 112 Kbps | 568 MB
Genre : Documentaire

Il était une fois un jeune couple de SDF sur les trottoirs de Paris, une jeune mère et ses deux époux dans un village himalayen à 5 000 mètres d'altitude, un Dani et ses trois femmes en Papouasie-Nouvelle-Guinée, une jeune Sibérienne, dont le coeur balance entre son ami et un soupirant, et un Polonais partagé entre plusieurs femmes, amantes et enfants…

Une histoire universelle

Tous parlent d'amour. De ce qu'ils ressentent, de ce que le mot signifie pour eux. Comment sait-on que l'on a trouvé l'amour ? Sommes-nous faits pour vivre à deux ? Peut-on aimer plusieurs personnes à la fois ? Et la jalousie dans tout ça ? Discrète, la caméra suit les protagonistes, à l'écoute de leurs émotions. Les lieux et les cultures varient, chaque histoire est unique, mais toutes amènent les mêmes questions, angoisses et bonheurs.

Format : MPEG-4
Format profile : Base Media / Version 2
Codec ID : mp42
File size : 568 MiB
Duration : 1h 27mn
Overall bit rate mode : Variable
Overall bit rate : 905 Kbps
Encoded date : UTC 2013-01-07 02:17:02
Tagged date : UTC 2013-01-07 02:17:13

Video
ID : 1
Format : AVC
Format/Info : Advanced Video Codec
Format profile : High@L3.1
Format settings, CABAC : Yes
Format settings, ReFrames : 4 frames
Codec ID : avc1
Codec ID/Info : Advanced Video Coding
Duration : 1h 27mn
Bit rate mode : Variable
Bit rate : 800 Kbps
Width : 640 pixels
Height : 368 pixels
Display aspect ratio : 1.739
Frame rate mode : Variable
Frame rate : 25.000 fps
Minimum frame rate : 24.718 fps
Maximum frame rate : 100.000 fps
Color space : YUV
Chroma subsampling : 4:2:0
Bit depth : 8 bits
Scan type : Progressive
Bits/(Pixel*Frame) : 0.136
Stream size : 502 MiB (88%)
Writing library : x264 core 129 r2230 1cffe9f
Encoding settings : cabac=1 / ref=3 / deblock=1:0:0 / analyse=0x3:0x113 / me=hex / subme=7 / psy=1 / psy_rd=1.00:0.00 / mixed_ref=1 / me_range=16 / chroma_me=1 / trellis=1 / 8x8dct=1 / cqm=0 / deadzone=21,11 / fast_pskip=1 / chroma_qp_offset=-2 / threads=12 / lookahead_threads=2 / sliced_threads=0 / nr=0 / decimate=1 / interlaced=0 / bluray_compat=0 / constrained_intra=0 / bframes=3 / b_pyramid=2 / b_adapt=1 / b_bias=0 / direct=1 / weightb=1 / open_gop=0 / weightp=2 / keyint=250 / keyint_min=25 / scenecut=40 / intra_refresh=0 / rc_lookahead=40 / rc=2pass / mbtree=1 / bitrate=800 / ratetol=1.0 / qcomp=0.60 / qpmin=0 / qpmax=69 / qpstep=4 / cplxblur=20.0 / qblur=0.5 / ip_ratio=1.40 / aq=1:1.00
Encoded date : UTC 2013-01-07 02:17:02
Tagged date : UTC 2013-01-07 02:17:13

Audio
ID : 2
Format : MPEG Audio
Format version : Version 1
Format profile : Layer 3
Mode : Joint stereo
Mode extension : MS Stereo
Codec ID : 69
Duration : 1h 27mn
Bit rate mode : Variable
Bit rate : 99.2 Kbps
Nominal bit rate : 112 Kbps
Channel(s) : 2 channels
Sampling rate : 48.0 KHz
Compression mode : Lossy
Stream size : 62.3 MiB (11%)
Writing library : LAME3.98r
Encoding settings : -m j -V 4 -q 2 -lowpass 15.6 –abr 112
Encoded date : UTC 2013-01-07 02:17:02
Tagged date : UTC 2013-01-07 02:17:13


(Arte) Secrets d'amour (2013)

(Arte) Secrets d'amour (2013)

(Arte) Secrets d'amour (2013)

(Arte) Secrets d'amour (2013)

(Arte) Secrets d'amour (2013)

(Arte) Secrets d'amour (2013)

(Arte) Secrets d'amour (2013)

No Pass ;)

Un merci ?