(Fr2) Secrets d'histoire - Talleyrand, le diable boiteux (2012)

Posted By: Morocco
(Fr2) Secrets d'histoire - Talleyrand, le diable boiteux (2012)

(Fr2) Secrets d'histoire - Talleyrand, le diable boiteux (2012)
TNT-Rip by Clo2 | French | 1h34min | 608 x 344 | 25.000 fps | Avi | MPEG-4 XviD @ 795 Kbps | MP3 @ 112 Kbps | 619 MB
Genre : Documentaire

Il est amoral, cynique, ambitieux, corrompu, mais il est aussi génial, brillant, charmeur, vous l’avez reconnu, c’est Talleyrand, celui qui n’hésite pas à admettre que parfois les intérêts de la France coïncident avec les siens…

C’est ce fascinant personnage que SECRETS D’HISTOIRE vous propose de retrouver depuis le somptueux hôtel de Saint Florentin, à Paris, et dans l’extraordinaire château de Valençay, entre Berry et Touraine, où il aime se retirer et réfléchir à ses prochaines intrigues.

« De la merde dans un bas de soie ! » dit de lui Napoléon qui l’a pourtant utilisé comme bien des régimes qui l’ont précédé… et qui lui succèderont. Il faut dire que le prince de Talleyrand, aussi évêque d’Autun, alors qu’il a dégrafé plus de jupons que de soutanes, est un diplomate aux talents partout reconnus sur la planète.

Il n’a pas son pareil pour négocier un traité, apaiser des tensions, trouver un compromis dès lors que celui qu’il sert veut bien le considérer. « Je porte malheur aux gouvernements qui me négligent » donne-t-il comme toute explication à ses incessants allers-retours sur la scène politique.

Voici l’incroyable histoire de Talleyrand qui a tout négocié, même sa propre mort, et promené sous neuf régimes son esprit irrésistible. Talleyrand qui n’hésite pas à déclarer, parmi tant de maximes : « Appuyons-nous sur les principes, ils finiront bien par céder ! »

Avec la participation de Franck Ferrand (historien), Emmanuel de Waresquiel (historien), Jean Tulard (historien), Françoise Hamel (écrivain), Eric Schell (écrivain), Michel de Decker (historien), Hubert Védrine (ancien ministre des affaires étrangères), Hélie de Pourtalès de Talleyrand (descendant de Talleyrand) et Roland Dumas (ancien Ministre).

Format : AVI
Format/Info : Audio Video Interleave
File size : 619 MiB
Duration : 1h 34mn
Overall bit rate : 916 Kbps
Writing application : VirtualDubMod 1.5.10.3 Fr | www.virtualdub-fr.org || (build 2550/release)
Writing library : VirtualDubMod build 2550/release

Video
ID : 0
Format : MPEG-4 Visual
Format profile : Advanced Simple@L5
Format settings, BVOP : 2
Format settings, QPel : No
Format settings, GMC : No warppoints
Format settings, Matrix : Default (MPEG)
Muxing mode : Packed bitstream
Codec ID : XVID
Codec ID/Hint : XviD
Duration : 1h 34mn
Bit rate : 795 Kbps
Width : 608 pixels
Height : 344 pixels
Display aspect ratio : 16:9
Frame rate : 25.000 fps
Color space : YUV
Chroma subsampling : 4:2:0
Bit depth : 8 bits
Scan type : Progressive
Compression mode : Lossy
Bits/(Pixel*Frame) : 0.152
Stream size : 537 MiB (87%)
Writing library : XviD 64

Audio
ID : 1
Format : MPEG Audio
Format version : Version 1
Format profile : Layer 3
Mode : Joint stereo
Mode extension : MS Stereo
Codec ID : 55
Codec ID/Hint : MP3
Duration : 1h 34mn
Bit rate mode : Constant
Bit rate : 112 Kbps
Channel(s) : 2 channels
Sampling rate : 48.0 KHz
Compression mode : Lossy
Stream size : 75.7 MiB (12%)
Alignment : Aligned on interleaves
Interleave, duration : 40 ms (1.00 video frame)
Interleave, preload duration : 504 ms
Writing library : LAME3.98r
Encoding settings : -m j -V 4 -q 3 -lowpass 15.6 -b 112


(Fr2) Secrets d'histoire - Talleyrand, le diable boiteux (2012)

(Fr2) Secrets d'histoire - Talleyrand, le diable boiteux (2012)

(Fr2) Secrets d'histoire - Talleyrand, le diable boiteux (2012)

(Fr2) Secrets d'histoire - Talleyrand, le diable boiteux (2012)

(Fr2) Secrets d'histoire - Talleyrand, le diable boiteux (2012)

(Fr2) Secrets d'histoire - Talleyrand, le diable boiteux (2012)

No Pass ;)

Un merci ?