(Fr3) Nous nous sommes tant aimés : Henri Salvador (2011)

Posted By: Morocco
(Fr3) Nous nous sommes tant aimés : Henri Salvador (2011)

(Fr3) Nous nous sommes tant aimés : Henri Salvador (2011)
TNT-Rip by Clo2 | French | 27min | 640 x 368 | 25.000 fps | Avi | MPEG-4 XviD @ 895 Kbps | MP3 @ 112 Kbps | 194 MB
Genre : Documentaire

Portrait du chanteur Henri Salvador, inoubliable interprète de «Syracuse», «Le travail, c'est la santé» ou «Zorro est arrivé», disparu le 13 février 2008.

Format : AVI
Format/Info : Audio Video Interleave
File size : 194 MiB
Duration : 26mn 41s
Overall bit rate : 1 017 Kbps
Writing library : VirtualDub build 32839/release

Video
ID : 0
Format : MPEG-4 Visual
Format profile : Advanced Simple@L5
Format settings, BVOP : 2
Format settings, QPel : No
Format settings, GMC : No warppoints
Format settings, Matrix : Default (MPEG)
Muxing mode : Packed bitstream
Codec ID : XVID
Codec ID/Hint : XviD
Duration : 26mn 41s
Bit rate : 895 Kbps
Width : 640 pixels
Height : 368 pixels
Display aspect ratio : 16:9
Frame rate : 25.000 fps
Color space : YUV
Chroma subsampling : 4:2:0
Bit depth : 8 bits
Scan type : Progressive
Compression mode : Lossy
Bits/(Pixel*Frame) : 0.152
Stream size : 171 MiB (88%)
Writing library : XviD 1.2.1 (UTC 2008-12-04)

Audio
ID : 1
Format : MPEG Audio
Format version : Version 1
Format profile : Layer 3
Mode : Joint stereo
Mode extension : MS Stereo
Codec ID : 55
Codec ID/Hint : MP3
Duration : 26mn 41s
Bit rate mode : Constant
Bit rate : 112 Kbps
Channel(s) : 2 channels
Sampling rate : 48.0 KHz
Compression mode : Lossy
Stream size : 21.4 MiB (11%)
Alignment : Split accross interleaves
Interleave, duration : 40 ms (1.00 video frame)
Interleave, preload duration : 500 ms
Writing library : LAME3.98r
Encoding settings : -m j -V 4 -q 3 -lowpass 15.6 -b 112


(Fr3) Nous nous sommes tant aimés : Henri Salvador (2011)

(Fr3) Nous nous sommes tant aimés : Henri Salvador (2011)

(Fr3) Nous nous sommes tant aimés : Henri Salvador (2011)

~ Liens interchangeables ~



No Pass ;)

Un merci ?

D'autres documentaires ? >> Listing des documentaires