The Ballad of the Dreadnought (2016)

Posted By: Tutorial
The Ballad of the Dreadnought (2016)

The Ballad of the Dreadnought (2016)
HDTV | 1280 x 720 | .MP4/AVC @ 1861 Kbps | 37mn 47s | English AAC 256 kbps, 2 channels | 573 MB
Genre: Documentary

The short documentary highlights the rise of the iconic Martin Dreadnought and is narrated by Martin player and actor Jeff Daniels. For 100 years, the Martin Dreadnought has withstood the test of time becoming the companion for many artists throughout music history. The documentary features CEO and Chairman Chris Martin IV with Martin Ambassadors Jason Isbell, Seth Avett, Del McCoury and Sturgill Simpson. Special appearances also include David Crosby, Stephan Stills, and Rosanne Cash as well.

General
Complete name : The.Ballad.of.the.Dreadnought.mp4
Format : MPEG-4
Format profile : Base Media / Version 2
Codec ID : mp42
File size : 573 MiB
Duration : 37mn 47s
Overall bit rate mode : Variable
Overall bit rate : 2 121 Kbps
Encoded date : UTC 2016-05-04 20:06:16
Tagged date : UTC 2016-05-04 20:06:16

Video
ID : 1
Format : AVC
Format/Info : Advanced Video Codec
Format profile : High@L3.2
Format settings, CABAC : Yes
Format settings, ReFrames : 5 frames
Codec ID : avc1
Codec ID/Info : Advanced Video Coding
Duration : 37mn 47s
Bit rate : 1 861 Kbps
Width : 1 280 pixels
Height : 720 pixels
Display aspect ratio : 16:9
Frame rate mode : Constant
Frame rate : 23.976 fps
Color space : YUV
Chroma subsampling : 4:2:0
Bit depth : 8 bits
Scan type : Progressive
Bits/(Pixel*Frame) : 0.084
Stream size : 503 MiB (88%)
Writing library : x264 core 148 r10 3b70645
Encoding settings : cabac=1 / ref=5 / deblock=1:0:0 / analyse=0x3:0x113 / me=umh / subme=8 / psy=1 / psy_rd=1.00:0.00 / mixed_ref=1 / me_range=16 / chroma_me=1 / trellis=1 / 8x8dct=1 / cqm=0 / deadzone=21,11 / fast_pskip=1 / chroma_qp_offset=-2 / threads=22 / lookahead_threads=3 / sliced_threads=0 / nr=0 / decimate=1 / interlaced=0 / bluray_compat=0 / stitchable=1 / constrained_intra=0 / bframes=3 / b_pyramid=2 / b_adapt=2 / b_bias=0 / direct=3 / weightb=1 / open_gop=0 / weightp=2 / keyint=infinite / keyint_min=23 / scenecut=40 / intra_refresh=0 / rc_lookahead=50 / rc=crf / mbtree=1 / crf=20.0 / qcomp=0.60 / qpmin=5 / qpmax=69 / qpstep=4 / vbv_maxrate=2750 / vbv_bufsize=7500 / crf_max=0.0 / nal_hrd=none / filler=0 / ip_ratio=1.40 / aq=1:1.00
Encoded date : UTC 2016-05-04 20:06:16
Tagged date : UTC 2016-05-04 20:06:16
Color primaries : BT.709-5, BT.1361, IEC 61966-2-4, SMPTE RP177
Transfer characteristics : BT.709-5, BT.1361
Matrix coefficients : BT.709-5, BT.1361, IEC 61966-2-4 709, SMPTE RP177

Audio
ID : 2
Format : AAC
Format/Info : Advanced Audio Codec
Format profile : LC
Codec ID : 40
Duration : 37mn 47s
Bit rate mode : Variable
Bit rate : 256 Kbps
Channel(s) : 2 channels
Channel positions : Front: L R
Sampling rate : 48.0 KHz
Compression mode : Lossy
Stream size : 69.2 MiB (12%)
Encoded date : UTC 2016-05-04 20:06:16
Tagged date : UTC 2016-05-04 20:06:16
Screenshots

The Ballad of the Dreadnought (2016)

The Ballad of the Dreadnought (2016)

The Ballad of the Dreadnought (2016)


The Ballad of the Dreadnought (2016)