Triumph of the Nerds - The Rise of Accidental Empires (1996)

Posted By: ParRus
SD / DVDRip IMDb
Triumph of the Nerds - The Rise of Accidental Empires (1996)

Triumph of the Nerds - The Rise of Accidental Empires
PDTV | English | AVI | 640 x 480 | XviD ~1146 kbps | 29.970 fps
AC-3 | 224 Kbps | 48.0 KHz | 2 channels | 02:32:01 | 1.48 GB
Genre: Documentary

Three part documentary that shows the insight look at the history of computers, from its rise in the 1970s to the beginning of the Dot-com boom of the late 1990s.
Episode 1: Impressing Their Friends
Tim Paterson's development of 86-DOS largely from duplicating Gary Kildall's CP/M operating system. Microsoft purchased all rights to 86-DOS from Paterson's employer SCP for US$50,000 shortly before the release of the IBM PC. Microsoft's resulting MS-DOS was an operating system that could run on any 8086-family computer.

Episode 2: Riding The Bear
Compaq's successful reverse-engineering of the IBM PC, which led to many competitors producing IBM-clones that undercut IBM's own offering. While IBM was one of the key companies that fostered the growth of the PC industry and initially dominated it, by 1990 it had lost its lead.
IBM's unsuccessful attempt to recapture a dominant share in the PC market with the PS/2 and OS/2, the latter being the successor to MS-DOS. The proprietary nature of the PS/2 and exclusivity of OS/2 was intended to drive sales of IBM's own hardware and made it difficult for other manufacturers of PC compatibles to compete.

Microsoft had originally profited from the initial success of the IBM PC. It did even better with the proliferation of clones as IBM's own market share shrunk, so Microsoft saw no business sense in following IBM's lead. Microsoft saw more potential in developing Windows, a project they pursued parallel to their cooperating with IBM on OS/2, and Windows 3.0 proved to be a great success (along with MS-DOS) bundled with new PCs. This led to the split between the two titans, with Microsoft setting the standard for PCs, while IBM concentrated on its mainframe and services businesses.

Episode 3: Great Artists Steal
Steve Jobs, having viewed a demonstration of Xerox's Star graphical user interface, developed a desktop manager for the Macintosh with an icon-based interface modeled on the Star. Cringely suggested that Xerox had the potential to be one of the key companies in the up and coming PC industry, had they understood the game-changing value of the graphical user interface.
Apple agreed to license parts of the Mac OS GUI to Microsoft who went on to develop Windows. Upon the release of Windows 2.0, Apple sued Microsoft in 1988 over the "look and feel" of the Mac OS. Apple lost the lawsuit in 1994, leaving Microsoft dominant in the operating system business.

Steve Jobs had recruited Pepsi-Cola executive John Sculley to become CEO of Apple, saying to the latter "do you want to sell sugar water for the rest of your life or do you want to come with me and change the world?"

The Apple Macintosh pioneered many of the features now standard in the PC, particularly ease of use. However, the Macintosh was considerably more expensive, so it was rapidly overtaken by the IBM PC, with some pundits not only saying that IBM had won, but also that Apple could potentially go out of business.

Chris Espinosa described Sculley's ouster of Jobs saying "The grandiose plans of what Macintosh were going to be was just so far out of whack with the truth of what the product was doing and the truth of what the product was doing was not horrible it was salvageable but the gap between the two was just so unthinkable that somebody had to do something and that somebody was John Sculley".

also You can look my other last: Documentary-posts

General
Complete name : Triumph of The Nerds\PBS - Triumph of The Nerds 2of3.avi
Format : AVI
Format/Info : Audio Video Interleave
File size : 501 MiB
Duration : 50 min 46 s
Overall bit rate : 1 379 kb/s
Writing application : VirtualDubMod 1.5.10.1 (build 2439/release)
Writing library : VirtualDubMod build 2439/release

Video
ID : 0
Format : MPEG-4 Visual
Format profile : Advanced Simple@L5
Format settings : BVOP2
Format settings, BVOP : 2
Format settings, QPel : No
Format settings, GMC : No warppoints
Format settings, Matrix : Default (H.263)
Muxing mode : Packed bitstream
Codec ID : XVID
Codec ID/Hint : XviD
Duration : 50 min 46 s
Bit rate : 1 146 kb/s
Width : 640 pixels
Height : 480 pixels
Display aspect ratio : 4:3
Frame rate : 29.970 (30000/1001) FPS
Color space : YUV
Chroma subsampling : 4:2:0
Bit depth : 8 bits
Scan type : Progressive
Compression mode : Lossy
Bits/(Pixel*Frame) : 0.125
Stream size : 416 MiB (83%)
Writing library : XviD 1.0.3 (UTC 2004-12-20)

Audio
ID : 1
Format : AC-3
Format/Info : Audio Coding 3
Codec ID : 2000
Duration : 50 min 46 s
Bit rate mode : Constant
Bit rate : 224 kb/s
Channel(s) : 2 channels
Channel positions : Front: L R
Sampling rate : 48.0 kHz
Frame rate : 31.250 FPS (1536 SPF)
Bit depth : 16 bits
Compression mode : Lossy
Stream size : 81.3 MiB (16%)
Alignment : Split accross interleaves
Interleave, duration : 67 ms (2.00 video frames)
Interleave, preload duration : 500 ms
Service kind : Complete Main
Screenshots

Triumph of the Nerds - The Rise of Accidental Empires (1996)

Triumph of the Nerds - The Rise of Accidental Empires (1996)

Triumph of the Nerds - The Rise of Accidental 			  		 	 	  		 	    	 			   			     		  	   	 			   			  	  			  	  	 			   		   	  		 		   			  				 Empires (1996)

Triumph of the Nerds - The Rise of Accidental Empires (1996)

Triumph of the Nerds - The Rise of Accidental Empires (1996)

Exclusive eLearning Videos ParRus-blogadd to bookmarks

Triumph of the Nerds - The Rise of Accidental Empires (1996)