The Victoria's Secret Fashion Show (2016)

Posted By: wcruiser
The Victoria's Secret Fashion Show (2016)

The Victoria's Secret Fashion Show (2016)
720p HDTV | MKV | 1280x720 | x264 @ 5794 Kbps | English AC3 (6 ch) @ 384 Kbps | 42mn | 1.88 GB
Sub: None
Genre: Documentary | Reality-TV

The Victoria’s Secret Fashion Show 2016 – Adriana Lima, Alessandra Ambrosio, Lily Aldridge, Elsa Hosk, Jasmine Tookes, Josephine Skriver and Lais Ribeiro are among lingerie models at the annual event taking place in Paris; Lady Gaga, Bruno Mars and The Weeknd perform.


General
Unique ID : 195798926686771429585838943597912911723 (0x934D8068C244F2D73DF196728CD3EF6B)
Complete name : D:\Downloads\TV-HD\The.Victorias.Secret.Fashion.Show.2016.720p.HDTV.x264-BATV\The.Victorias.Secret.Fashion.Show.2016.720p.HDTV.x264-BATV.mkv
Format : Matroska
Format version : Version 4 / Version 2
File size : 1.88 GiB
Duration : 42 min 36 s
Overall bit rate : 6 304 kb/s
Encoded date : UTC 2016-12-06 05:24:26
Writing application : mkvmerge v7.0.0 ('Where We Going') 64bit built on Jun 22 2014 08:19:39
Writing library : libebml v1.3.0 + libmatroska v1.4.1

Video
ID : 1
Format : AVC
Format/Info : Advanced Video Codec
Format profile : High@L4.1
Format settings, CABAC : Yes
Format settings, ReFrames : 5 frames
Codec ID : V_MPEG4/ISO/AVC
Duration : 42 min 36 s
Bit rate : 5 794 kb/s
Width : 1 280 pixels
Height : 720 pixels
Display aspect ratio : 16:9
Frame rate mode : Constant
Frame rate : 29.970 (30000/1001) FPS
Color space : YUV
Chroma subsampling : 4:2:0
Bit depth : 8 bits
Scan type : Progressive
Bits/(Pixel*Frame) : 0.210
Stream size : 1.72 GiB (92%)
Writing library : x264 core 148 r2721 72d53ab
Encoding settings : cabac=1 / ref=5 / deblock=1:0:0 / analyse=0x3:0x113 / me=hex / subme=8 / psy=1 / psy_rd=1.00:0.00 / mixed_ref=1 / me_range=16 / chroma_me=1 / trellis=2 / 8x8dct=1 / cqm=0 / deadzone=21,11 / fast_pskip=1 / chroma_qp_offset=-2 / threads=22 / lookahead_threads=3 / sliced_threads=0 / nr=0 / decimate=1 / interlaced=0 / bluray_compat=0 / constrained_intra=0 / bframes=3 / b_pyramid=2 / b_adapt=1 / b_bias=0 / direct=3 / weightb=1 / open_gop=0 / weightp=2 / keyint=250 / keyint_min=25 / scenecut=40 / intra_refresh=0 / rc_lookahead=50 / rc=crf / mbtree=1 / crf=20.0 / qcomp=0.60 / qpmin=0 / qpmax=69 / qpstep=4 / ip_ratio=1.40 / aq=1:1.00
Default : Yes
Forced : No
Color range : Limited
Matrix coefficients : BT.709

Audio
ID : 2
Format : AC-3
Format/Info : Audio Coding 3
Mode extension : CM (complete main)
Format settings, Endianness : Big
Codec ID : A_AC3
Duration : 42 min 36 s
Bit rate mode : Constant
Bit rate : 384 kb/s
Channel(s) : 6 channels
Channel positions : Front: L C R, Side: L R, LFE
Sampling rate : 48.0 kHz
Frame rate : 31.250 FPS (1536 spf)
Bit depth : 16 bits
Compression mode : Lossy
Stream size : 117 MiB (6%)
Default : Yes
Forced : No


The Victoria's Secret Fashion Show (2016)