Thorne: Sleepyhead (2010)

Posted By: a_l_chemist
Thorne: Sleepyhead (2010)

Thorne: Sleepyhead (2010)
BDRip | AVI | XviD | 656x368, 646 kbps | English: MP3, 2ch, 128 kbps | 02:05:24 | 731 MB
Genre: Crime | Drama | Mystery

Thorne: Sleepyhead is a television drama series directed by Stephen Hopkins and stars David Morrissey who plays the title role of Detective Inspector Tom Thorne created by crime writer Mark Billingham. The supporting cast includes Aidan Gillen, Eddie Marsan and Natascha McElhone.

Plot: Three woman are found murdered, their killer having induced them into having strokes. A fourth victim is still alive, and might be able to identify her assailant, except that she cannot communicate as she has been left with locked-in syndrome. Investigating, DI Tom Thorne concludes that it was the killer's intention to leave his victims incapacitated, not dead. Thorne is forced to conduct his investigation alone when Tughan dismisses his "locked-in" theory. He and Anne Coburn try to help Alison Willetts communicate. A woman who claims to have escaped the killer is attacked. Tughan identifies pathologist Phil Hendricks as his prime suspect, and seems determined to expose the dark secret that binds him to Thorne. Anne's daughter Rachel unwittingly puts herself in danger.
–from wikipedia
…..IMDb
Thorne: Sleepyhead (2010)

Thorne: Sleepyhead (2010)

Thorne: Sleepyhead (2010)

Thorne: Sleepyhead (2010)

Thorne: Sleepyhead (2010)

General
Complete name : E:\Movies\Thorne Sleepyhead\Thorne Sleepyhead.avi
Format : AVI
Format/Info : Audio Video Interleave
File size : 703 MiB
Duration : 2h 5mn
Overall bit rate : 784 Kbps
Writing library : VirtualDub build 32842/release

Video
ID : 0
Format : MPEG-4 Visual
Format profile : Advanced Simple@L5
Format settings, BVOP : 4
Format settings, QPel : No
Format settings, GMC : No warppoints
Format settings, Matrix : Default (H.263)
Muxing mode : Packed bitstream
Codec ID : XVID
Codec ID/Hint : XviD
Duration : 2h 5mn
Bit rate : 646 Kbps
Width : 656 pixels
Height : 368 pixels
Display aspect ratio : 16:9
Frame rate : 23.976 fps
Color space : YUV
Chroma subsampling : 4:2:0
Bit depth : 8 bits
Scan type : Progressive
Compression mode : Lossy
Bits/(Pixel*Frame) : 0.112
Stream size : 580 MiB (82%)
Writing library : XviD 64

Audio
ID : 1
Format : MPEG Audio
Format version : Version 1
Format profile : Layer 3
Mode : Joint stereo
Mode extension : MS Stereo
Codec ID : 55
Codec ID/Hint : MP3
Duration : 2h 5mn
Bit rate mode : Constant
Bit rate : 128 Kbps
Channel(s) : 2 channels
Sampling rate : 48.0 KHz
Compression mode : Lossy
Stream size : 115 MiB (16%)
Alignment : Split accross interleaves
Interleave, duration : 42 ms (1.00 video frame)
Interleave, preload duration : 500 ms
Writing library : LAME3.97

Download:

Filesonic
List of links

Wupload
List of links

Fileserve
List of links

Interchangeable links

My blog on AvaxHome

.: No Mirrors Please :.