Innovation Nation: S01E03 - Voice Magic of Auto-Tune (2015)

Posted By: ParRus
Innovation Nation: S01E03 - Voice Magic of Auto-Tune (2015)

Innovation Nation: S01E03 - Voice Magic of Auto-Tune
HDTV | 1280x720 | .MKV/AVC @ 2253 Kbps | 20mn 30s | Audio: English MP2 192 kbps, 2 channels | 365 MB
Genre: Documentary

Host Mo Rocca shows the creator of the pop singer’s best friend, Autotune; Rosa Parks and the bus that changed the world of race relations; humanoid robots are making it into the mainstream; and skimming the plastics from our oceans.
General
Unique ID : 240939421787023698628946547295722872464 (0xB5433EA5FD4A909DB03EC177AD3B1E90)
Complete name : Innovation.Nation - (s01e03).Voice.Magic.of.Auto-Tune - 2015.720p.MP2.mkv
Format : Matroska
Format version : Version 4 / Version 2
File size : 366 MiB
Duration : 20mn 30s
Overall bit rate : 2 495 Kbps
Encoded date : UTC 2015-05-03 16:09:17
Writing application : mkvmerge v6.8.0 ('Theme for Great Cities') 64bit built on Mar 2 2014 21:34:26
Writing library : libebml v1.3.0 + libmatroska v1.4.1

Video
ID : 1
Format : AVC
Format/Info : Advanced Video Codec
Format profile : High@L4.1
Format settings, CABAC : Yes
Format settings, ReFrames : 5 frames
Codec ID : V_MPEG4/ISO/AVC
Duration : 20mn 30s
Bit rate : 2 253 Kbps
Width : 1 280 pixels
Height : 720 pixels
Display aspect ratio : 16:9
Frame rate : 25.000 fps
Color space : YUV
Chroma subsampling : 4:2:0
Bit depth : 8 bits
Scan type : Progressive
Bits/(Pixel*Frame) : 0.098
Stream size : 330 MiB (90%)
Writing library : x264 core 146 r2538 121396c
Encoding settings : cabac=1 / ref=5 / deblock=1:0:0 / analyse=0x3:0x113 / me=umh / subme=8 / psy=1 / psy_rd=1.00:0.00 / mixed_ref=1 / me_range=16 / chroma_me=1 / trellis=1 / 8x8dct=1 / cqm=0 / deadzone=21,11 / fast_pskip=1 / chroma_qp_offset=-2 / threads=12 / lookahead_threads=2 / sliced_threads=0 / nr=0 / decimate=1 / interlaced=0 / bluray_compat=0 / constrained_intra=0 / bframes=3 / b_pyramid=2 / b_adapt=2 / b_bias=0 / direct=3 / weightb=1 / open_gop=0 / weightp=2 / keyint=250 / keyint_min=25 / scenecut=40 / intra_refresh=0 / rc_lookahead=50 / rc=crf / mbtree=1 / crf=20.0 / qcomp=0.60 / qpmin=0 / qpmax=69 / qpstep=4 / ip_ratio=1.40 / aq=1:1.00
Default : Yes
Forced : No

Audio
ID : 2
Format : MPEG Audio
Format version : Version 1
Format profile : Layer 2
Codec ID : A_MPEG/L2
Codec ID/Hint : MP2
Duration : 20mn 30s
Bit rate mode : Constant
Bit rate : 192 Kbps
Channel(s) : 2 channels
Sampling rate : 48.0 KHz
Compression mode : Lossy
Stream size : 28.2 MiB (8%)
Language : English
Default : Yes
Forced : No
Screenshots

Innovation Nation: S01E03 - Voice Magic of Auto-Tune (2015)

Innovation Nation: S01E03 - Voice Magic of Auto-Tune (2015)

Innovation Nation: S01E03 - Voice Magic of Auto-Tune (2015)

For more, Visit my AH-blog

Innovation Nation: S01E03 - Voice Magic of Auto-Tune (2015)