Tags
Language
Tags

What the Health (2017)

Posted By: Tutorial
What the Health (2017)

What the Health (2017)
HDTV | 1920 x 1080 | .MP4/AVC @ 3202 Kbps | 1 h 31 min | 2.22 GB
Audio: English AAC 256 Kbps, 2 channels | Subs: None
Genre: Documentary, Health-Medical

An intrepid filmmaker on a journey of discovery as he uncovers possibly the largest health secret of our time and the collusion between industry, government, pharmaceutical and health organizations keeping this information from us.
What the Health is a ground breaking feature length documentary from the award-winning filmmakers of Cowspiracy, that follows the exciting journey of intrepid filmmaker, Kip Andersen, as he uncovers the impacts of highly processed industrial animal foods on our personal health and greater community, and explores why leading health organizations continue to promote the industry despite countless medical studies and research showing deleterious effects of these products on our health.

Directors: Kip Andersen, Keegan Kuhn
Writers: Kip Andersen, Kip Andersen
Stars: Kip Andersen, Larry Baldwin, Neal Barnard

More info: IMDB

also You can look my other last: Health-Medical-posts

General
Complete name : WHAT.THE.HEALTH.mp4
Format : MPEG-4
Format profile : Base Media / Version 2
Codec ID : mp42 (mp42/mp41/isom/avc1)
File size : 2.22 GiB
Duration : 1 h 31 min
Overall bit rate mode : Variable
Overall bit rate : 3 462 kb/s
Encoded date : UTC 2017-03-15 06:29:42
Tagged date : UTC 2017-03-15 06:29:42

Video
ID : 1
Format : AVC
Format/Info : Advanced Video Codec
Format profile : High@L4
Format settings, CABAC : Yes
Format settings, ReFrames : 4 frames
Codec ID : avc1
Codec ID/Info : Advanced Video Coding
Duration : 1 h 31 min
Bit rate : 3 202 kb/s
Width : 1 920 pixels
Height : 1 080 pixels
Display aspect ratio : 16:9
Frame rate mode : Constant
Frame rate : 23.976 (24000/1001) FPS
Color space : YUV
Chroma subsampling : 4:2:0
Bit depth : 8 bits
Scan type : Progressive
Bits/(Pixel*Frame) : 0.064
Stream size : 2.06 GiB (92%)
Writing library : x264 core 148 r10 90a61ec
Encoding settings : cabac=1 / ref=4 / deblock=1:0:0 / analyse=0x3:0x113 / me=hex / subme=8 / psy=1 / psy_rd=1.00:0.00 / mixed_ref=1 / me_range=16 / chroma_me=1 / trellis=2 / 8x8dct=1 / cqm=0 / deadzone=21,11 / fast_pskip=1 / chroma_qp_offset=-2 / threads=34 / lookahead_threads=5 / sliced_threads=0 / nr=0 / decimate=1 / interlaced=0 / bluray_compat=0 / stitchable=1 / constrained_intra=0 / bframes=3 / b_pyramid=2 / b_adapt=1 / b_bias=0 / direct=3 / weightb=1 / open_gop=0 / weightp=2 / keyint=infinite / keyint_min=23 / scenecut=40 / intra_refresh=0 / rc_lookahead=50 / rc=crf / mbtree=1 / crf=20.0 / qcomp=0.60 / qpmin=5 / qpmax=69 / qpstep=4 / vbv_maxrate=4950 / vbv_bufsize=13500 / crf_max=0.0 / nal_hrd=none / filler=0 / ip_ratio=1.40 / aq=1:1.00
Encoded date : UTC 2017-03-15 06:29:42
Tagged date : UTC 2017-03-15 06:29:42
Color range : Limited
Color primaries : BT.709
Transfer characteristics : BT.709
Matrix coefficients : BT.709

Audio
ID : 2
Format : AAC
Format/Info : Advanced Audio Codec
Format profile : LC
Codec ID : 40
Duration : 1 h 31 min
Bit rate mode : Variable
Bit rate : 256 kb/s
Channel(s) : 2 channels
Channel positions : Front: L R
Sampling rate : 48.0 kHz
Frame rate : 46.875 FPS (1024 spf)
Compression mode : Lossy
Stream size : 168 MiB (7%)
Encoded date : UTC 2017-03-15 06:29:42
Tagged date : UTC 2017-03-15 06:29:42
Screenshots

What the Health (2017)

What the Health (2017)

What the Health (2017)

Welcome to my blog - daily update!

What the Health (2017)