(Arte) Zone 51, Nevada, USA : Quand les MiG livraient leurs secrets (2011)

Posted By: Morocco
(Arte) Zone 51, Nevada, USA : Quand les MiG livraient leurs secrets (2011)

(Arte) Zone 51, Nevada, USA : Quand les MiG livraient leurs secrets (2011)
TNT-Rip by Clo2 | French | 52min | 640 x 368 | 25.000 fps | Avi | MPEG-4 XviD @ 895 Kbps | MP3 @ 112 Kbps | 379 MB
Genre : Documentaire

La fameuse "zone 51" a alimenté de nombreuses rumeurs depuis les années 50. Mais loin des fantasmes de science-fiction, cette vaste base militaire du désert du Nevada abritait des secrets militaires bien réels.

En 1955, l'armée de l'air américaine délimite au cœur du Nevada un vaste territoire dont l'accès est strictement réglementé. Les amateurs de SF croient que les autorités y cachent à l'opinion publique des vaisseaux spatiaux et des extra-terrestres. Des images circulent… En fait, la zone 51 permettait de tester du matériel de guerre (avions et nouvelles armes) et aussi d'analyser en toute quiétude les équipements de l'ennemi. Ainsi des Mig 21 soviétiques que des agents du Mossad israélien avaient pu se procurer et livrer aux Américains. Israël fut largement récompensé, puisqu'il reçut en échange des avions F-4 Phantom II.

Format : AVI
Format/Info : Audio Video Interleave
File size : 379 MiB
Duration : 52mn 4s
Overall bit rate : 1 017 Kbps
Writing application : VirtualDubMod 1.5.10.3 Fr | www.virtualdub-fr.org || (build 2550/release)
Writing library : VirtualDubMod build 2550/release

Video
ID : 0
Format : MPEG-4 Visual
Format profile : Advanced Simple@L5
Format settings, BVOP : 2
Format settings, QPel : No
Format settings, GMC : No warppoints
Format settings, Matrix : Default (MPEG)
Muxing mode : Packed bitstream
Codec ID : XVID
Codec ID/Hint : XviD
Duration : 52mn 4s
Bit rate : 895 Kbps
Width : 640 pixels
Height : 368 pixels
Display aspect ratio : 16:9
Frame rate : 25.000 fps
Color space : YUV
Chroma subsampling : 4:2:0
Bit depth : 8 bits
Scan type : Progressive
Compression mode : Lossy
Bits/(Pixel*Frame) : 0.152
Stream size : 333 MiB (88%)
Writing library : XviD 57

Audio
ID : 1
Format : MPEG Audio
Format version : Version 1
Format profile : Layer 3
Mode : Joint stereo
Mode extension : MS Stereo
Codec ID : 55
Codec ID/Hint : MP3
Duration : 52mn 4s
Bit rate mode : Constant
Bit rate : 112 Kbps
Channel(s) : 2 channels
Sampling rate : 48.0 KHz
Compression mode : Lossy
Stream size : 41.7 MiB (11%)
Alignment : Aligned on interleaves
Interleave, duration : 40 ms (1.00 video frame)
Interleave, preload duration : 504 ms
Writing library : LAME3.98r
Encoding settings : -m j -V 4 -q 3 -lowpass 15.6 -b 112


(Arte) Zone 51, Nevada, USA : Quand les MiG livraient leurs secrets (2011)

(Arte) Zone 51, Nevada, USA : Quand les MiG livraient leurs secrets (2011)

(Arte) Zone 51, Nevada, USA : Quand les MiG livraient leurs secrets (2011)

~ Liens interchangeables ~



No Pass ;)

Un merci ?

D'autres documentaires ? >> Listing des documentaires