Tags
Language
Tags

Shoujo Shuumatsu Ryokou (2017)

Posted By: Lebedev30
1080p (FullHD) / WEBRip IMDb
Shoujo Shuumatsu Ryokou (2017)

Shoujo Shuumatsu Ryokou (2017)
WEBRip | MKV | 1920x1080 | H264@2042 Kbps | 12x ~ 25mn | 12x ~400 Mb
日本語 AAC@159 Kbps | 2 channels | Subtitles: English
Genre: adventure, post-apocalyptic, seinen


Description:
* Based on Tsukumizu's post-apocalyptic slice of life seinen manga.

Civilization is dead, but Chito and Yuuri are still alive. So they hop aboard their beloved Kettenkrad motorbike and aimlessly wander the ruins of the world they once knew. Day after hopeless day, they look for their next meal and fuel for their ride. But as long as the two are together, even an existence as bleak as theirs has a ray or two of sunshine in it, whether they're sucking down their fill of soup or hunting for machine parts to tinker with. For two girls in a world full of nothing, the experiences and feelings the two share give them something to live for…






01. Starry Sky / War
02. Bath / Journal / Laundry
03. Encounter / City / Streetlights
04. Photograph / Temple
05. House / Nap / The Sound of Rain
06. Accident / Technology / Takeoff
07. Labyrinth / Cooking
08. Memories / Spiral / Moonlight
09. Technology / Aquarium / Life
10. Train / Wavelength / Capture
11. Culture / Destruction / The Past
12. Connection / Friends


General
Format : Matroska
Format version : Version 4 / Version 2
File size : 385 MiB
Duration : 24 min 25 s
Overall bit rate : 2 204 kb/s
Encoded date : UTC 2017-10-06 14:14:29
Writing application : mkvmerge v13.0.0 ('The Juggler') 64bit
Writing library : libebml v1.3.4 + libmatroska v1.4.5

Video
ID : 1
Format : AVC
Format/Info : Advanced Video Codec
Format profile : High@L4.1
Format settings : CABAC / 4 Ref Frames
Format settings, CABAC : Yes
Format settings, RefFrames : 4 frames
Codec ID : V_MPEG4/ISO/AVC
Duration : 24 min 25 s
Bit rate : 2 042 kb/s
Width : 1 920 pixels
Height : 1 080 pixels
Display aspect ratio : 16:9
Frame rate mode : Constant
Frame rate : 23.976 (23976/1000) FPS
Color space : YUV
Chroma subsampling : 4:2:0
Bit depth : 8 bits
Scan type : Progressive
Bits/(Pixel*Frame) : 0.041
Stream size : 357 MiB (93%)
Writing library : x264 core 148
Encoding settings : cabac=1 / ref=3 / deblock=1:0:0 / analyse=0x3:0x113 / me=hex / subme=7 / psy=1 / psy_rd=1.00:0.00 / mixed_ref=1 / me_range=16 / chroma_me=1 / trellis=1 / 8x8dct=1 / cqm=0 / deadzone=21,11 / fast_pskip=1 / chroma_qp_offset=-2 / threads=34 / lookahead_threads=5 / sliced_threads=0 / nr=0 / decimate=1 / interlaced=0 / bluray_compat=0 / constrained_intra=0 / bframes=3 / b_pyramid=2 / b_adapt=1 / b_bias=0 / direct=1 / weightb=1 / open_gop=0 / weightp=2 / keyint=90 / keyint_min=9 / scenecut=0 / intra_refresh=0 / rc_lookahead=40 / rc=crf / mbtree=1 / crf=22.0 / qcomp=0.60 / qpmin=0 / qpmax=69 / qpstep=4 / vbv_maxrate=13500 / vbv_bufsize=135000 / crf_max=0.0 / nal_hrd=none / filler=0 / ip_ratio=1.40 / aq=1:1.00
Language : Japanese
Default : Yes
Forced : No

Audio
ID : 2
Format : AAC
Format/Info : Advanced Audio Codec
Format profile : LC
Codec ID : A_AAC-2
Duration : 24 min 25 s
Bit rate : 159 kb/s
Channel(s) : 2 channels
Channel positions : Front: L R
Sampling rate : 48.0 kHz
Frame rate : 46.875 FPS (1024 SPF)
Compression mode : Lossy
Delay relative to video : -43 ms
Stream size : 27.8 MiB (7%)
Language : Japanese
Default : Yes
Forced : No

Text
ID : 3
Format : ASS
Codec ID : S_TEXT/ASS
Codec ID/Info : Advanced Sub Station Alpha
Duration : 20 min 46 s
Bit rate : 53 b/s
Count of elements : 199
Compression mode : Lossless
Stream size : 8.19 KiB (0%)
Language : English
Default : Yes
Forced : No


Screenshots

Shoujo Shuumatsu Ryokou (2017)

Shoujo Shuumatsu Ryokou (2017)

Shoujo Shuumatsu Ryokou (2017)


My publications | Rss Channel