Featured TV Shows


La Révolution S01E03

Posted By: Tavaz
1080p (FullHD) / WEBRip IMDb
La Révolution S01E03

La Révolution S01E03
WEBRip | MOV | 1920x1080 | English / Español / Français / Italiano / Deutsch | H264 @ 2638 kbps | AAC @ 127 kbps | 42 min 0 s | 2.13 GiB
Subtitles: English, Español, Français, Italiano, Deutsch
Genre: Drama


1787, France. While investigating a series of mysterious murders, Joseph Guillotin - the future inventor of the world famous ‘Guillotine’ - uncovers an unknown virus: the Blue Blood. The disease quickly spreads amongst the French aristocracy, driving them to murder ordinary people and soon leads to a rebellion.

7e2a428a1e77e0b8897b28ca89ae765d.mkv (2.1 GB)



General
Complete name : ./7e2a428a1e77e0b8897b28ca89ae765d.mkv
Format : MPEG-4
Format profile : Base Media
Codec ID : isom (isom/iso2/avc1/mp41)
File size : 2.13 GiB
Duration : 42 min 0 s
Overall bit rate mode : Variable
Overall bit rate : 7 252 kb/s
Writing application : Lavf58.18.101
FileExtension_Invalid : mov mp4 m4v m4a m4b m4p 3ga 3gpa 3gpp 3gp 3gpp2 3g2 k3g jpm jpx mqv ismv isma ismt f4a f4b f4v

Video
ID : 13
Format : AVC
Format/Info : Advanced Video Codec
Format profile : Main@L4
Format settings : CABAC / 1 Ref Frames
Format settings, CABAC : Yes
Format settings, RefFrames : 1 frame
Codec ID : avc1
Codec ID/Info : Advanced Video Coding
Duration : 41 min 59 s
Bit rate mode : Variable
Bit rate : 2 639 kb/s
Maximum bit rate : 6 000 kb/s
Width : 1 920 pixels
Height : 1 080 pixels
Display aspect ratio : 16:9
Frame rate mode : Constant
Frame rate : 24.000 FPS
Original frame rate : 29.970 (30000/1001) FPS
Color space : YUV
Chroma subsampling : 4:2:0
Bit depth : 8 bits
Scan type : Progressive
Bits/(Pixel*Frame) : 0.053
Stream size : 793 MiB (36%)
Default : Yes
Alternate group : 12

Audio #1
ID : 1
Format : AAC
Format/Info : Advanced Audio Codec
Format profile : HE-AAC / LC
Format settings : Explicit
Codec ID : mp4a-40-2
Duration : 42 min 0 s
Bit rate mode : Constant
Bit rate : 128 kb/s
Channel(s) : 2 channels
Channel positions : Front: L R
Sampling rate : 48.0 kHz / 24.0 kHz
Frame rate : 23.438 FPS (1024 SPF)
Compression mode : Lossy
Stream size : 38.5 MiB (2%)
Title : allemand
Language : German

Audio #2
ID : 2
Format : AAC
Format/Info : Advanced Audio Codec
Format profile : HE-AAC / LC
Format settings : Explicit
Codec ID : mp4a-40-2
Duration : 42 min 0 s
Bit rate mode : Constant
Bit rate : 128 kb/s
Channel(s) : 2 channels
Channel positions : Front: L R
Sampling rate : 48.0 kHz / 24.0 kHz
Frame rate : 23.438 FPS (1024 SPF)
Compression mode : Lossy
Stream size : 38.5 MiB (2%)
Title : anglais britannique
Language : English
Default : Yes
Alternate group : 1

Audio #3
ID : 3
Format : AAC
Format/Info : Advanced Audio Codec
Format profile : HE-AAC / LC
Format settings : Explicit
Codec ID : mp4a-40-2
Duration : 42 min 0 s
Bit rate mode : Constant
Bit rate : 128 kb/s
Channel(s) : 2 channels
Channel positions : Front: L R
Sampling rate : 48.0 kHz / 24.0 kHz
Frame rate : 23.438 FPS (1024 SPF)
Compression mode : Lossy
Stream size : 38.5 MiB (2%)
Title : espagnol
Language : Spanish
Default : Yes
Alternate group : 2

Audio #4
ID : 4
Format : AAC
Format/Info : Advanced Audio Codec
Format profile : HE-AAC / LC
Format settings : Explicit
Codec ID : mp4a-40-2
Duration : 42 min 0 s
Bit rate mode : Constant
Bit rate : 128 kb/s
Channel(s) : 2 channels
Channel positions : Front: L R
Sampling rate : 48.0 kHz / 24.0 kHz
Frame rate : 23.438 FPS (1024 SPF)
Compression mode : Lossy
Stream size : 38.5 MiB (2%)
Title : français [VO]
Language : French
Default : Yes
Alternate group : 3

Audio #5
ID : 5
Format : AAC
Format/Info : Advanced Audio Codec
Format profile : HE-AAC / LC
Format settings : Explicit
Codec ID : mp4a-40-2
Duration : 42 min 0 s
Bit rate mode : Constant
Bit rate : 128 kb/s
Channel(s) : 2 channels
Channel positions : Front: L R
Sampling rate : 48.0 kHz / 24.0 kHz
Frame rate : 23.438 FPS (1024 SPF)
Compression mode : Lossy
Stream size : 38.5 MiB (2%)
Title : italien
Language : Italian
Default : Yes
Alternate group : 4

Audio #6
ID : 6
Format : E-AC-3
Format/Info : Enhanced Audio Coding 3
Format settings, Endianness : Big
Codec ID : ec-3
Duration : 42 min 0 s
Bit rate mode : Constant
Bit rate : 640 kb/s
Channel(s) : 6 channels
Channel positions : Front: L C R, Side: L R, LFE
Sampling rate : 48.0 kHz
Frame rate : 187.500 FPS (256 SPF)
Bit depth : 16 bits
Compression mode : Lossy
Stream size : 192 MiB (9%)
Title : allemand - Dolby
Language : German
Service kind : Complete Main
Default : Yes
Alternate group : 5

Audio #7
ID : 7
Format : E-AC-3
Format/Info : Enhanced Audio Coding 3
Format settings, Endianness : Big
Codec ID : ec-3
Duration : 42 min 0 s
Bit rate mode : Constant
Bit rate : 640 kb/s
Channel(s) : 6 channels
Channel positions : Front: L C R, Side: L R, LFE
Sampling rate : 48.0 kHz
Frame rate : 187.500 FPS (256 SPF)
Bit depth : 16 bits
Compression mode : Lossy
Stream size : 192 MiB (9%)
Title : anglais britannique - Dolby
Language : English
Service kind : Complete Main
Default : Yes
Alternate group : 6

Audio #8
ID : 8
Format : E-AC-3
Format/Info : Enhanced Audio Coding 3
Format settings, Endianness : Big
Codec ID : ec-3
Duration : 42 min 0 s
Bit rate mode : Constant
Bit rate : 640 kb/s
Channel(s) : 6 channels
Channel positions : Front: L C R, Side: L R, LFE
Sampling rate : 48.0 kHz
Frame rate : 187.500 FPS (256 SPF)
Bit depth : 16 bits
Compression mode : Lossy
Stream size : 192 MiB (9%)
Title : espagnol
Language : Spanish
Service kind : Complete Main
Default : Yes
Alternate group : 7

Audio #9
ID : 9
Format : E-AC-3
Format/Info : Enhanced Audio Coding 3
Format settings, Endianness : Big
Codec ID : ec-3
Duration : 42 min 0 s
Bit rate mode : Constant
Bit rate : 640 kb/s
Channel(s) : 6 channels
Channel positions : Front: L C R, Side: L R, LFE
Sampling rate : 48.0 kHz
Frame rate : 187.500 FPS (256 SPF)
Bit depth : 16 bits
Compression mode : Lossy
Stream size : 192 MiB (9%)
Title : français [VO] - Dolby
Language : French
Service kind : Complete Main
Default : Yes
Alternate group : 8

Audio #10
ID : 10
Format : E-AC-3
Format/Info : Enhanced Audio Coding 3
Format settings, Endianness : Big
Codec ID : ec-3
Duration : 42 min 0 s
Bit rate mode : Constant
Bit rate : 640 kb/s
Channel(s) : 6 channels
Channel positions : Front: L C R, Side: L R, LFE
Sampling rate : 48.0 kHz
Frame rate : 187.500 FPS (256 SPF)
Bit depth : 16 bits
Compression mode : Lossy
Stream size : 192 MiB (9%)
Title : italien - Dolby
Language : Italian
Service kind : Complete Main
Default : Yes
Alternate group : 9

Audio #11
ID : 11
Format : AAC
Format/Info : Advanced Audio Codec
Format profile : HE-AAC / LC
Format settings : Explicit
Codec ID : mp4a-40-2
Duration : 42 min 0 s
Bit rate mode : Constant
Bit rate : 128 kb/s
Channel(s) : 2 channels
Channel positions : Front: L R
Sampling rate : 48.0 kHz / 24.0 kHz
Frame rate : 23.438 FPS (1024 SPF)
Compression mode : Lossy
Stream size : 38.5 MiB (2%)
Title : français - Description sonore
Language : French
Default : Yes
Alternate group : 10

Audio #12
ID : 12
Format : E-AC-3
Format/Info : Enhanced Audio Coding 3
Format settings, Endianness : Big
Codec ID : ec-3
Duration : 42 min 0 s
Bit rate mode : Constant
Bit rate : 640 kb/s
Channel(s) : 6 channels
Channel positions : Front: L C R, Side: L R, LFE
Sampling rate : 48.0 kHz
Frame rate : 187.500 FPS (256 SPF)
Bit depth : 16 bits
Compression mode : Lossy
Stream size : 192 MiB (9%)
Title : français - Description sonore - Dolby
Language : French
Service kind : Complete Main
Default : Yes
Alternate group : 11

Text #1
ID : 14
Format : Timed Text
Muxing mode : sbtl
Codec ID : tx3g
Duration : 41 min 3 s
Bit rate mode : Variable
Bit rate : 33 b/s
Stream size : 9.81 KiB (0%)
Title : allemand
Language : German
Default : Yes
Forced : No
Alternate group : 13

Text #2
ID : 15
Format : Timed Text
Muxing mode : sbtl
Codec ID : tx3g
Duration : 38 min 57 s
Bit rate mode : Variable
Bit rate : 36 b/s
Stream size : 10.2 KiB (0%)
Title : anglais
Language : English
Default : No
Forced : No
Alternate group : 14

Text #3
ID : 16
Format : Timed Text
Muxing mode : sbtl
Codec ID : tx3g
Duration : 41 min 3 s
Bit rate mode : Variable
Bit rate : 31 b/s
Stream size : 9.32 KiB (0%)
Title : espagnol
Language : Spanish
Default : No
Forced : No
Alternate group : 15

Text #4
ID : 17
Format : Timed Text
Muxing mode : sbtl
Codec ID : tx3g
Duration : 41 min 3 s
Bit rate mode : Variable
Bit rate : 34 b/s
Stream size : 10.1 KiB (0%)
Title : italien
Language : Italian
Default : No
Forced : No
Alternate group : 16

Text #5
ID : 18
Format : Timed Text
Muxing mode : sbtl
Codec ID : tx3g
Duration : 39 min 23 s
Bit rate mode : Variable
Bit rate : 59 b/s
Stream size : 17.1 KiB (0%)
Title : anglais britannique
Language : English
Default : No
Forced : No
Alternate group : 17

Text #6
ID : 19
Format : Timed Text
Muxing mode : sbtl
Codec ID : tx3g
Duration : 38 min 57 s
Bit rate mode : Variable
Bit rate : 47 b/s
Stream size : 13.5 KiB (0%)
Title : français
Language : French
Default : No
Forced : No
Alternate group : 18





La Révolution S01E03


La Révolution S01E03


La Révolution S01E03


La Révolution S01E03


La Révolution S01E03

All episodes