Featured TV Shows


Raised by Wolves S01E08

Posted By: Tavaz
720p (HD) / WEB-DL IMDb
Raised by Wolves S01E08

Raised by Wolves S01E08
WEB-DL | MKV | 1280x720 | English | H264 @ 3391 kbps | AC-3 @ 384 kbps | 49 min 15 s | 1.30 GiB
Subtitles: English
Genre: Drama


After Earth is ravaged by a great religious war, an atheistic android architect sends two of his creations, Mother and Father, to start a peaceful, godless colony on the planet Kepler-22b. Their treacherous task is jeopardized by the arrival of the Mithraic, a deeply devout religious order of surviving humans.

010c5838be7f4b8d8a629a50e5267619.mkv (1.3 GB)



General
Unique ID : 299777687072703022683497074998287501730 (0xE18715196D805501BC45B9BEA43389A2)
Complete name : ./010c5838be7f4b8d8a629a50e5267619.mkv
Format : Matroska
Format version : Version 4 / Version 2
File size : 1.30 GiB
Duration : 49 min 15 s
Overall bit rate mode : Variable
Overall bit rate : 3 778 kb/s
Encoded date : UTC 2020-09-24 11:43:33
Writing application : mkvmerge v21.0.0 ('Tardigrades Will Inherit The Earth') 64-bit
Writing library : libebml v1.3.5 + libmatroska v1.4.8

Video
ID : 1
Format : AVC
Format/Info : Advanced Video Codec
Format profile : Main@L3.1
Format settings : CABAC / 4 Ref Frames
Format settings, CABAC : Yes
Format settings, RefFrames : 4 frames
Codec ID : V_MPEG4/ISO/AVC
Duration : 49 min 15 s
Bit rate mode : Variable
Bit rate : 3 392 kb/s
Maximum bit rate : 5 100 kb/s
Width : 1 280 pixels
Height : 720 pixels
Display aspect ratio : 16:9
Frame rate mode : Constant
Frame rate : 23.976 (24000/1001) FPS
Color space : YUV
Chroma subsampling : 4:2:0
Bit depth : 8 bits
Scan type : Progressive
Bits/(Pixel*Frame) : 0.153
Stream size : 1.17 GiB (90%)
Default : Yes
Forced : No
Color range : Limited
Color primaries : BT.709
Transfer characteristics : BT.709
Matrix coefficients : BT.709

Audio
ID : 2
Format : AC-3
Format/Info : Audio Coding 3
Format settings, Endianness : Big
Codec ID : A_AC3
Duration : 49 min 15 s
Bit rate mode : Constant
Bit rate : 384 kb/s
Channel(s) : 6 channels
Channel positions : Front: L C R, Side: L R, LFE
Sampling rate : 48.0 kHz
Frame rate : 31.250 FPS (1536 SPF)
Bit depth : 16 bits
Compression mode : Lossy
Stream size : 135 MiB (10%)
Language : English
Service kind : Complete Main
Default : Yes
Forced : No

Text
ID : 3
Format : UTF-8
Codec ID : S_TEXT/UTF8
Codec ID/Info : UTF-8 Plain Text
Duration : 49 min 12 s
Bit rate : 43 b/s
Count of elements : 666
Stream size : 15.8 KiB (0%)
Title : SDH
Language : English
Default : No
Forced : No

Menu
00:48:15.000 : en:Credits





Raised by Wolves S01E08


Raised by Wolves S01E08


Raised by Wolves S01E08


Raised by Wolves S01E08


Raised by Wolves S01E08

All episodes