Featured TV Shows


Raised by Wolves S01E07

Posted By: Tavaz
720p (HD) / WEB-DL IMDb
Raised by Wolves S01E07

Raised by Wolves S01E07
WEB-DL | MKV | 1280x720 | H264 @ 3323 kbps | AC-3 @ 384 kbps | 48 min 54 s | 1.29 GiB
Genre: Drama


After Earth is ravaged by a great religious war, an atheistic android architect sends two of his creations, Mother and Father, to start a peaceful, godless colony on the planet Kepler-22b. Their treacherous task is jeopardized by the arrival of the Mithraic, a deeply devout religious order of surviving humans.

02e27e1c99b44d2a8e229cae6ed44c9c.mkv (1.3 GB)



General
Unique ID : 337970603398323069809256835818229917596 (0xFE42C542288540EDF2BD581D6E54E79C)
Complete name : ./02e27e1c99b44d2a8e229cae6ed44c9c.mkv
Format : Matroska
Format version : Version 4 / Version 2
File size : 1.29 GiB
Duration : 48 min 54 s
Overall bit rate mode : Variable
Overall bit rate : 3 783 kb/s
Writing application : Lavf58.42.100
Writing library : Lavf58.42.100
ErrorDetectionType : Per level 1

Video
ID : 1
Format : AVC
Format/Info : Advanced Video Codec
Format profile : Main@L3.1
Format settings : CABAC / 4 Ref Frames
Format settings, CABAC : Yes
Format settings, RefFrames : 4 frames
Codec ID : V_MPEG4/ISO/AVC
Duration : 48 min 54 s
Bit rate mode : Variable
Bit rate : 3 323 kb/s
Maximum bit rate : 5 100 kb/s
Width : 1 280 pixels
Height : 720 pixels
Display aspect ratio : 16:9
Frame rate mode : Constant
Frame rate : 23.976 (24000/1001) FPS
Color space : YUV
Chroma subsampling : 4:2:0
Bit depth : 8 bits
Scan type : Progressive
Bits/(Pixel*Frame) : 0.150
Stream size : 1.14 GiB (88%)
Default : Yes
Forced : No
Color range : Limited
Color primaries : BT.709
Transfer characteristics : BT.709
Matrix coefficients : BT.709

Audio
ID : 2
Format : AC-3
Format/Info : Audio Coding 3
Format settings, Endianness : Big
Codec ID : A_AC3
Duration : 48 min 54 s
Bit rate mode : Constant
Bit rate : 384 kb/s
Channel(s) : 6 channels
Channel positions : Front: L C R, Side: L R, LFE
Sampling rate : 48.0 kHz
Frame rate : 31.250 FPS (1536 SPF)
Bit depth : 16 bits
Compression mode : Lossy
Stream size : 134 MiB (10%)
Service kind : Complete Main
Default : Yes
Forced : No

Text
ID : 3
Format : ASS
Codec ID : S_TEXT/ASS
Codec ID/Info : Advanced Sub Station Alpha
Duration : 48 min 53 s
Compression mode : Lossless
Writing library : Lavc58.80.100 ssa
Default : No
Forced : No





Raised by Wolves S01E07


Raised by Wolves S01E07


Raised by Wolves S01E07


Raised by Wolves S01E07


Raised by Wolves S01E07

All episodes