Featured TV Shows


Raised by Wolves S01E08

Posted By: Tavaz
1080p (FullHD) / WEBRip IMDb
Raised by Wolves S01E08

Raised by Wolves S01E08
WEBRip | MKV | 1920x1080 | English | H264 @ 8060 kbps | AC-3 @ 384 kbps | 49 min 15 s | 2.96 GiB
Subtitles: English
Genre: Drama


After Earth is ravaged by a great religious war, an atheistic android architect sends two of his creations, Mother and Father, to start a peaceful, godless colony on the planet Kepler-22b. Their treacherous task is jeopardized by the arrival of the Mithraic, a deeply devout religious order of surviving humans.

487fe88085714c3fb7d4daf8cab3dcc0.mkv (3.0 GB)



General
Unique ID : 319519083054779790977567939021373544560 (0xF061231180F278FCA241CAE158719870)
Complete name : ./487fe88085714c3fb7d4daf8cab3dcc0.mkv
Format : Matroska
Format version : Version 4 / Version 2
File size : 2.96 GiB
Duration : 49 min 15 s
Overall bit rate mode : Variable
Overall bit rate : 8 616 kb/s
Writing application : mkvmerge v49.0.0 ('Sick Of Losing Soulmates') 64-bit
Writing library : libebml v1.4.0 + libmatroska v1.6.1

Video
ID : 1
Format : AVC
Format/Info : Advanced Video Codec
Format profile : High@L4
Format settings : CABAC / 4 Ref Frames
Format settings, CABAC : Yes
Format settings, RefFrames : 4 frames
Codec ID : V_MPEG4/ISO/AVC
Duration : 49 min 15 s
Bit rate mode : Variable
Bit rate : 8 061 kb/s
Maximum bit rate : 12.4 Mb/s
Width : 1 920 pixels
Height : 1 080 pixels
Display aspect ratio : 16:9
Frame rate mode : Constant
Frame rate : 23.976 (24000/1001) FPS
Color space : YUV
Chroma subsampling : 4:2:0
Bit depth : 8 bits
Scan type : Progressive
Bits/(Pixel*Frame) : 0.162
Stream size : 2.77 GiB (94%)
Default : Yes
Forced : No
Color range : Limited
Color primaries : BT.709
Transfer characteristics : BT.709
Matrix coefficients : BT.709

Audio
ID : 2
Format : AC-3
Format/Info : Audio Coding 3
Format settings, Endianness : Big
Codec ID : A_AC3
Duration : 49 min 15 s
Bit rate mode : Constant
Bit rate : 384 kb/s
Channel(s) : 6 channels
Channel positions : Front: L C R, Side: L R, LFE
Sampling rate : 48.0 kHz
Frame rate : 31.250 FPS (1536 SPF)
Bit depth : 16 bits
Compression mode : Lossy
Stream size : 135 MiB (4%)
Language : English
Service kind : Complete Main
Default : Yes
Forced : No

Text
ID : 3
Format : UTF-8
Codec ID : S_TEXT/UTF8
Codec ID/Info : UTF-8 Plain Text
Language : English
Default : No
Forced : No





Raised by Wolves S01E08


Raised by Wolves S01E08


Raised by Wolves S01E08


Raised by Wolves S01E08


Raised by Wolves S01E08

All episodes