Featured TV Shows


Tehran S01E01

Posted By: Tavaz
720p (HD) / WEB-DL IMDb
Tehran S01E01

Tehran S01E01
WEB-DL | MKV | 1482x620 | H264 @ 3841 kbps | E-AC-3 @ 768 kbps | 50 min 14 s | 1.65 GiB
Genre: Drama


A Mossad agent embarks on her first mission as a computer hacker in her home town of Tehran.

15a7d87f89f4480ea4bc1014cf728f83.mkv (1.7 GB)



General
Unique ID : 136578058518368511706239122223735038831 (0x66BFFA2E049F532C5AFF46CBA6C8E36F)
Complete name : ./15a7d87f89f4480ea4bc1014cf728f83.mkv
Format : Matroska
Format version : Version 4 / Version 2
File size : 1.65 GiB
Duration : 50 min 14 s
Overall bit rate : 4 703 kb/s
Writing application : Lavf58.42.100
Writing library : Lavf58.42.100
ErrorDetectionType : Per level 1

Video
ID : 1
Format : AVC
Format/Info : Advanced Video Codec
Format profile : High@L3.2
Format settings : CABAC / 5 Ref Frames
Format settings, CABAC : Yes
Format settings, RefFrames : 5 frames
Codec ID : V_MPEG4/ISO/AVC
Duration : 50 min 14 s
Bit rate : 3 842 kb/s
Width : 1 482 pixels
Height : 620 pixels
Display aspect ratio : 2.40:1
Frame rate mode : Constant
Frame rate : 23.976 (24000/1001) FPS
Color space : YUV
Chroma subsampling : 4:2:0
Bit depth : 8 bits
Scan type : Progressive
Bits/(Pixel*Frame) : 0.174
Stream size : 1.35 GiB (82%)
Default : Yes
Forced : No
Color range : Limited
Color primaries : BT.709
Transfer characteristics : BT.709
Matrix coefficients : BT.709

Audio
ID : 2
Format : E-AC-3
Format/Info : Enhanced Audio Coding 3
Format profile : E-AC-3+Atmos / E-AC-3
Format settings, Endianness : Big
Codec ID : A_EAC3
Duration : 50 min 14 s
Bit rate mode : Constant
Bit rate : 768 kb/s
Channel(s) : 15 objects / 6 channels
Channel positions : 15 objects / Front: L C R, Side: L R, LFE
Sampling rate : 48.0 kHz
Frame rate : 187.500 FPS (256 SPF)
Bit depth : 32 bits
Compression mode : Lossy
Stream size : 276 MiB (16%)
Service kind : Complete Main
Default : Yes
Forced : No

Text
ID : 3
Format : ASS
Codec ID : S_TEXT/ASS
Codec ID/Info : Advanced Sub Station Alpha
Duration : 48 min 28 s
Compression mode : Lossless
Writing library : Lavc58.80.100 ssa
Default : Yes
Forced : Yes





Tehran S01E01


Tehran S01E01


Tehran S01E01


Tehran S01E01


Tehran S01E01

All episodes