Featured TV Shows


Tehran S01E01

Posted By: Tavaz
1080p (FullHD) / WEB-DL IMDb
Tehran S01E01

Tehran S01E01
WEB-DL | MKV | 1920x804 | עברית | H264 @ 10206 kbps | E-AC-3 @ 768 kbps | 50 min 14 s | 3.85 GiB
Subtitles: ภาษาไทย, Français, tiếng Việt, Español, Eesti keel, Slovenčina, 日本語, עברית, 한국어, Български, Ελληνικά, Nederlands, Dansk, Bahasa Indonesia, Русский, Українська, 中文, Suomi, Polski, Magyar, Türkçe, English, हिन्दी, العربية, Slovenščina, Deutsch, Svenska, Italiano, Português, Čeština
Genre: Drama

A Mossad agent embarks on her first mission as a computer hacker in her home town of Tehran.

ed393b9a231b9df7cca90489c7a1c013.mkv (3.9 GB)



General
Unique ID : 314567276124946705003990860320858602973 (0xECA77423263AD02F180B912BA59A7DDD)
Complete name : ./ed393b9a231b9df7cca90489c7a1c013.mkv
Format : Matroska
Format version : Version 4 / Version 2
File size : 3.85 GiB
Duration : 50 min 14 s
Overall bit rate : 11.0 Mb/s
Encoded date : UTC 2020-09-25 11:27:01
Writing application : mkvmerge v45.0.0 ('Heaven in Pennies') 64-bit
Writing library : libebml v1.3.10 + libmatroska v1.5.2

Video
ID : 1
Format : AVC
Format/Info : Advanced Video Codec
Format profile : High@L4
Format settings : CABAC / 5 Ref Frames
Format settings, CABAC : Yes
Format settings, RefFrames : 5 frames
Codec ID : V_MPEG4/ISO/AVC
Duration : 50 min 14 s
Bit rate : 10.2 Mb/s
Width : 1 920 pixels
Height : 804 pixels
Display aspect ratio : 2.40:1
Frame rate mode : Constant
Frame rate : 23.976 (24000/1001) FPS
Color space : YUV
Chroma subsampling : 4:2:0
Bit depth : 8 bits
Scan type : Progressive
Bits/(Pixel*Frame) : 0.276
Stream size : 3.58 GiB (93%)
Default : Yes
Forced : No
Color range : Limited
Color primaries : BT.709
Transfer characteristics : BT.709
Matrix coefficients : BT.709

Audio
ID : 2
Format : E-AC-3
Format/Info : Enhanced Audio Coding 3
Format profile : E-AC-3+Atmos / E-AC-3
Format settings, Endianness : Big
Codec ID : A_EAC3
Duration : 50 min 14 s
Bit rate mode : Constant
Bit rate : 768 kb/s
Channel(s) : 15 objects / 6 channels
Channel positions : 15 objects / Front: L C R, Side: L R, LFE
Sampling rate : 48.0 kHz
Frame rate : 187.500 FPS (256 SPF)
Compression mode : Lossy
Stream size : 276 MiB (7%)
Language : Hebrew
Service kind : Complete Main
Default : Yes
Forced : No

Text #1
ID : 3
Format : UTF-8
Codec ID : S_TEXT/UTF8
Codec ID/Info : UTF-8 Plain Text
Duration : 47 min 38 s
Bit rate : 28 b/s
Count of elements : 328
Stream size : 9.99 KiB (0%)
Title : Forced
Language : Hebrew
Default : Yes
Forced : Yes

Text #2
ID : 4
Format : UTF-8
Codec ID : S_TEXT/UTF8
Codec ID/Info : UTF-8 Plain Text
Duration : 49 min 34 s
Bit rate : 63 b/s
Count of elements : 544
Stream size : 23.1 KiB (0%)
Language : Arabic
Default : No
Forced : No

Text #3
ID : 5
Format : UTF-8
Codec ID : S_TEXT/UTF8
Codec ID/Info : UTF-8 Plain Text
Duration : 49 min 34 s
Bit rate : 63 b/s
Count of elements : 515
Stream size : 22.9 KiB (0%)
Language : Bulgarian
Default : No
Forced : No

Text #4
ID : 6
Format : UTF-8
Codec ID : S_TEXT/UTF8
Codec ID/Info : UTF-8 Plain Text
Duration : 49 min 34 s
Bit rate : 37 b/s
Count of elements : 544
Stream size : 13.6 KiB (0%)
Title : Simplified Mandarin
Language : Chinese
Default : No
Forced : No

Text #5
ID : 7
Format : UTF-8
Codec ID : S_TEXT/UTF8
Codec ID/Info : UTF-8 Plain Text
Duration : 49 min 34 s
Bit rate : 36 b/s
Count of elements : 548
Stream size : 13.2 KiB (0%)
Title : Traditional Mandarin
Language : Chinese
Default : No
Forced : No

Text #6
ID : 8
Format : UTF-8
Codec ID : S_TEXT/UTF8
Codec ID/Info : UTF-8 Plain Text
Duration : 49 min 34 s
Bit rate : 39 b/s
Count of elements : 519
Stream size : 14.4 KiB (0%)
Language : Czech
Default : No
Forced : No

Text #7
ID : 9
Format : UTF-8
Codec ID : S_TEXT/UTF8
Codec ID/Info : UTF-8 Plain Text
Duration : 49 min 34 s
Bit rate : 44 b/s
Count of elements : 541
Stream size : 16.0 KiB (0%)
Language : Danish
Default : No
Forced : No

Text #8
ID : 10
Format : UTF-8
Codec ID : S_TEXT/UTF8
Codec ID/Info : UTF-8 Plain Text
Duration : 49 min 1 s
Bit rate : 40 b/s
Count of elements : 547
Stream size : 14.5 KiB (0%)
Language : German
Default : No
Forced : No

Text #9
ID : 11
Format : UTF-8
Codec ID : S_TEXT/UTF8
Codec ID/Info : UTF-8 Plain Text
Duration : 49 min 34 s
Bit rate : 71 b/s
Count of elements : 492
Stream size : 25.8 KiB (0%)
Language : Greek
Default : No
Forced : No

Text #10
ID : 12
Format : UTF-8
Codec ID : S_TEXT/UTF8
Codec ID/Info : UTF-8 Plain Text
Duration : 47 min 38 s
Bit rate : 44 b/s
Count of elements : 515
Stream size : 15.4 KiB (0%)
Language : English
Default : No
Forced : No

Text #11
ID : 13
Format : UTF-8
Codec ID : S_TEXT/UTF8
Codec ID/Info : UTF-8 Plain Text
Duration : 49 min 32 s
Bit rate : 43 b/s
Count of elements : 549
Stream size : 15.8 KiB (0%)
Title : Latin America
Language : Spanish
Default : No
Forced : No

Text #12
ID : 14
Format : UTF-8
Codec ID : S_TEXT/UTF8
Codec ID/Info : UTF-8 Plain Text
Duration : 50 min 1 s
Bit rate : 43 b/s
Count of elements : 487
Stream size : 16.1 KiB (0%)
Title : Spain
Language : Spanish
Default : No
Forced : No

Text #13
ID : 15
Format : UTF-8
Codec ID : S_TEXT/UTF8
Codec ID/Info : UTF-8 Plain Text
Duration : 49 min 34 s
Bit rate : 40 b/s
Count of elements : 456
Stream size : 14.7 KiB (0%)
Language : Estonian
Default : No
Forced : No

Text #14
ID : 16
Format : UTF-8
Codec ID : S_TEXT/UTF8
Codec ID/Info : UTF-8 Plain Text
Duration : 49 min 34 s
Bit rate : 38 b/s
Count of elements : 540
Stream size : 14.0 KiB (0%)
Language : Finnish
Default : No
Forced : No

Text #15
ID : 17
Format : UTF-8
Codec ID : S_TEXT/UTF8
Codec ID/Info : UTF-8 Plain Text
Duration : 49 min 2 s
Bit rate : 44 b/s
Count of elements : 558
Stream size : 16.0 KiB (0%)
Title : Canada
Language : French
Default : No
Forced : No

Text #16
ID : 18
Format : UTF-8
Codec ID : S_TEXT/UTF8
Codec ID/Info : UTF-8 Plain Text
Duration : 49 min 2 s
Bit rate : 44 b/s
Count of elements : 558
Stream size : 16.0 KiB (0%)
Title : France
Language : French
Default : No
Forced : No

Text #17
ID : 19
Format : UTF-8
Codec ID : S_TEXT/UTF8
Codec ID/Info : UTF-8 Plain Text
Duration : 49 min 34 s
Bit rate : 44 b/s
Count of elements : 429
Stream size : 16.1 KiB (0%)
Language : Hebrew
Default : No
Forced : No

Text #18
ID : 20
Format : UTF-8
Codec ID : S_TEXT/UTF8
Codec ID/Info : UTF-8 Plain Text
Duration : 49 min 34 s
Bit rate : 66 b/s
Count of elements : 608
Stream size : 24.0 KiB (0%)
Title : SDH
Language : Hebrew
Default : No
Forced : No

Text #19
ID : 21
Format : UTF-8
Codec ID : S_TEXT/UTF8
Codec ID/Info : UTF-8 Plain Text
Duration : 49 min 34 s
Bit rate : 108 b/s
Count of elements : 546
Stream size : 39.3 KiB (0%)
Language : Hindi
Default : No
Forced : No

Text #20
ID : 22
Format : UTF-8
Codec ID : S_TEXT/UTF8
Codec ID/Info : UTF-8 Plain Text
Duration : 49 min 34 s
Bit rate : 43 b/s
Count of elements : 542
Stream size : 15.6 KiB (0%)
Language : Hungarian
Default : No
Forced : No

Text #21
ID : 23
Format : UTF-8
Codec ID : S_TEXT/UTF8
Codec ID/Info : UTF-8 Plain Text
Duration : 49 min 34 s
Bit rate : 43 b/s
Count of elements : 544
Stream size : 15.8 KiB (0%)
Language : Indonesian
Default : No
Forced : No

Text #22
ID : 24
Format : UTF-8
Codec ID : S_TEXT/UTF8
Codec ID/Info : UTF-8 Plain Text
Duration : 49 min 36 s
Bit rate : 42 b/s
Count of elements : 549
Stream size : 15.5 KiB (0%)
Language : Italian
Default : No
Forced : No

Text #23
ID : 25
Format : UTF-8
Codec ID : S_TEXT/UTF8
Codec ID/Info : UTF-8 Plain Text
Duration : 49 min 33 s
Bit rate : 39 b/s
Count of elements : 525
Stream size : 14.5 KiB (0%)
Language : Japanese
Default : No
Forced : No

Text #24
ID : 26
Format : UTF-8
Codec ID : S_TEXT/UTF8
Codec ID/Info : UTF-8 Plain Text
Duration : 49 min 34 s
Bit rate : 44 b/s
Count of elements : 549
Stream size : 16.2 KiB (0%)
Language : Korean
Default : No
Forced : No

Text #25
ID : 27
Format : UTF-8
Codec ID : S_TEXT/UTF8
Codec ID/Info : UTF-8 Plain Text
Duration : 49 min 34 s
Bit rate : 42 b/s
Count of elements : 544
Stream size : 15.5 KiB (0%)
Language : Lithuanian
Default : No
Forced : No

Text #26
ID : 28
Format : UTF-8
Codec ID : S_TEXT/UTF8
Codec ID/Info : UTF-8 Plain Text
Duration : 49 min 34 s
Bit rate : 44 b/s
Count of elements : 545
Stream size : 16.3 KiB (0%)
Language : Latvian
Default : No
Forced : No

Text #27
ID : 29
Format : UTF-8
Codec ID : S_TEXT/UTF8
Codec ID/Info : UTF-8 Plain Text
Duration : 49 min 34 s
Bit rate : 45 b/s
Count of elements : 542
Stream size : 16.6 KiB (0%)
Language : Malay
Default : No
Forced : No

Text #28
ID : 30
Format : UTF-8
Codec ID : S_TEXT/UTF8
Codec ID/Info : UTF-8 Plain Text
Duration : 49 min 34 s
Bit rate : 40 b/s
Count of elements : 482
Stream size : 14.9 KiB (0%)
Language : Dutch
Default : No
Forced : No

Text #29
ID : 31
Format : UTF-8
Codec ID : S_TEXT/UTF8
Codec ID/Info : UTF-8 Plain Text
Duration : 49 min 34 s
Bit rate : 41 b/s
Count of elements : 532
Stream size : 15.2 KiB (0%)
Language : Norwegian
Default : No
Forced : No

Text #30
ID : 32
Format : UTF-8
Codec ID : S_TEXT/UTF8
Codec ID/Info : UTF-8 Plain Text
Duration : 49 min 34 s
Bit rate : 37 b/s
Count of elements : 532
Stream size : 13.5 KiB (0%)
Language : Polish
Default : No
Forced : No

Text #31
ID : 33
Format : UTF-8
Codec ID : S_TEXT/UTF8
Codec ID/Info : UTF-8 Plain Text
Duration : 49 min 34 s
Bit rate : 42 b/s
Count of elements : 546
Stream size : 15.5 KiB (0%)
Language : Portuguese
Default : No
Forced : No

Text #32
ID : 34
Format : UTF-8
Codec ID : S_TEXT/UTF8
Codec ID/Info : UTF-8 Plain Text
Duration : 49 min 34 s
Bit rate : 41 b/s
Count of elements : 495
Stream size : 14.9 KiB (0%)
Title : Brazil
Language : Portuguese
Default : No
Forced : No

Text #33
ID : 35
Format : UTF-8
Codec ID : S_TEXT/UTF8
Codec ID/Info : UTF-8 Plain Text
Duration : 49 min 34 s
Bit rate : 66 b/s
Count of elements : 547
Stream size : 24.2 KiB (0%)
Language : Russian
Default : No
Forced : No

Text #34
ID : 36
Format : UTF-8
Codec ID : S_TEXT/UTF8
Codec ID/Info : UTF-8 Plain Text
Duration : 49 min 34 s
Bit rate : 36 b/s
Count of elements : 540
Stream size : 13.4 KiB (0%)
Language : Slovak
Default : No
Forced : No

Text #35
ID : 37
Format : UTF-8
Codec ID : S_TEXT/UTF8
Codec ID/Info : UTF-8 Plain Text
Duration : 49 min 34 s
Bit rate : 36 b/s
Count of elements : 543
Stream size : 13.4 KiB (0%)
Language : Slovenian
Default : No
Forced : No

Text #36
ID : 38
Format : UTF-8
Codec ID : S_TEXT/UTF8
Codec ID/Info : UTF-8 Plain Text
Duration : 49 min 34 s
Bit rate : 43 b/s
Count of elements : 544
Stream size : 15.6 KiB (0%)
Language : Swedish
Default : No
Forced : No

Text #37
ID : 39
Format : UTF-8
Codec ID : S_TEXT/UTF8
Codec ID/Info : UTF-8 Plain Text
Duration : 49 min 34 s
Bit rate : 139 b/s
Count of elements : 545
Stream size : 50.7 KiB (0%)
Language : Tamil
Default : No
Forced : No

Text #38
ID : 40
Format : UTF-8
Codec ID : S_TEXT/UTF8
Codec ID/Info : UTF-8 Plain Text
Duration : 49 min 34 s
Bit rate : 124 b/s
Count of elements : 545
Stream size : 45.4 KiB (0%)
Language : Telugu
Default : No
Forced : No

Text #39
ID : 41
Format : UTF-8
Codec ID : S_TEXT/UTF8
Codec ID/Info : UTF-8 Plain Text
Duration : 49 min 34 s
Bit rate : 106 b/s
Count of elements : 543
Stream size : 38.6 KiB (0%)
Language : Thai
Default : No
Forced : No

Text #40
ID : 42
Format : UTF-8
Codec ID : S_TEXT/UTF8
Codec ID/Info : UTF-8 Plain Text
Duration : 49 min 34 s
Bit rate : 41 b/s
Count of elements : 539
Stream size : 15.1 KiB (0%)
Language : Turkish
Default : No
Forced : No

Text #41
ID : 43
Format : UTF-8
Codec ID : S_TEXT/UTF8
Codec ID/Info : UTF-8 Plain Text
Duration : 49 min 34 s
Bit rate : 68 b/s
Count of elements : 548
Stream size : 24.8 KiB (0%)
Language : Ukrainian
Default : No
Forced : No

Text #42
ID : 44
Format : UTF-8
Codec ID : S_TEXT/UTF8
Codec ID/Info : UTF-8 Plain Text
Duration : 49 min 34 s
Bit rate : 59 b/s
Count of elements : 543
Stream size : 21.7 KiB (0%)
Language : Vietnamese
Default : No
Forced : No

Text #43
ID : 45
Format : UTF-8
Codec ID : S_TEXT/UTF8
Codec ID/Info : UTF-8 Plain Text
Duration : 49 min 34 s
Bit rate : 38 b/s
Count of elements : 547
Stream size : 14.0 KiB (0%)
Title : Cantonese
Language : Chinese
Default : No
Forced : No





Tehran S01E01


Tehran S01E01


Tehran S01E01


Tehran S01E01


Tehran S01E01

All episodes