Featured TV Shows


The 100 S07E16

Posted By: Tavaz
720p (HD) / WEBRip IMDb
The 100 S07E16

The 100 S07E16
WEBRip | MKV | 1280x720 | English | H264 @ 2432 kbps | AAC @ 93 kbps | 43 min 11 s | 774 MiB
Subtitles: English
Genre: Drama


100 years in the future, when the Earth has been abandoned due to radioactivity, the last surviving humans live on an ark orbiting the planet — but the ark won't last forever. So the repressive regime picks 100 expendable juvenile delinquents to send down to Earth to see if the planet is still habitable.

ca4713aee3c140a2aed0cf52a44ae088.mkv (773.6 MB)



General
Unique ID : 139770268244581638205167307132418569873 (0x6926C645495608196D015A4BB706B691)
Complete name : ./ca4713aee3c140a2aed0cf52a44ae088.mkv
Format : Matroska
Format version : Version 4 / Version 2
File size : 774 MiB
Duration : 43 min 11 s
Overall bit rate : 2 504 kb/s
Encoded date : UTC 2020-10-01 06:18:52
Writing application : mkvmerge v50.0.0 ('Awakenings') 64-bit
Writing library : libebml v1.4.0 + libmatroska v1.6.2

Video
ID : 1
Format : AVC
Format/Info : Advanced Video Codec
Format profile : Main@L3.1
Format settings : CABAC / 3 Ref Frames
Format settings, CABAC : Yes
Format settings, RefFrames : 3 frames
Codec ID : V_MPEG4/ISO/AVC
Duration : 43 min 11 s
Bit rate mode : Constant
Bit rate : 2 432 kb/s
Width : 1 280 pixels
Height : 720 pixels
Display aspect ratio : 16:9
Frame rate mode : Constant
Frame rate : 23.976 (24000/1001) FPS
Color space : YUV
Chroma subsampling : 4:2:0
Bit depth : 8 bits
Scan type : Progressive
Bits/(Pixel*Frame) : 0.110
Stream size : 744 MiB (96%)
Language : English
Default : Yes
Forced : No

Audio
ID : 2
Format : AAC
Format/Info : Advanced Audio Codec
Format profile : LC
Codec ID : A_AAC-2
Duration : 43 min 11 s
Bit rate : 93.6 kb/s
Channel(s) : 2 channels
Channel positions : Front: L R
Sampling rate : 44.1 kHz
Frame rate : 43.066 FPS (1024 SPF)
Compression mode : Lossy
Delay relative to video : -36 ms
Stream size : 28.9 MiB (4%)
Language : English
Default : Yes
Forced : No

Text
ID : 3
Format : UTF-8
Codec ID : S_TEXT/UTF8
Codec ID/Info : UTF-8 Plain Text
Duration : 42 min 4 s
Bit rate : 59 b/s
Count of elements : 722
Stream size : 18.2 KiB (0%)
Language : English
Default : No
Forced : No





The 100 S07E16


The 100 S07E16


The 100 S07E16


The 100 S07E16


The 100 S07E16

All episodes